[ Today is free to download without increasing Download ]

DL-List and Torrent activity
Сегодня день рождения
Жанр: рисованный мультфильм
Год выпуска: 1966
Продолжительность: 00:16:46
Режиссёр: Лев Мильчин
Описание: Мультипликационный фильм, действие которого происходт в городке Игрушинске, где живут щенок Бобик, Слон и злой, завистливый Кот. Фильм посвящен теме дружбы и взаимного доверия ...
Доп. информация:

Трансляция спутникового канала: "Карусель"
Качество видео: DVB
Формат видео: MPEG-PS
Видео: MPEG2 Video, 720x576, 25 fps, 3800 kbps
Аудио: MPEG Audio, 2 сh, 48 kHz, 192 kbps


Complete name : D:\Сегодня день рождения. (1966)_DVB by SLuMeP.mpg
Format : MPEG-PS
File size : 451 MiB
Duration : 16mn 46s
Overall bit rate mode : Variable
Overall bit rate : 3 754 Kbps
ID : 224 (0xE0)
Format : MPEG Video
Format version : Version 2
Format profile : Main@Main
Format settings, BVOP : Yes
Format settings, Matrix : Custom
Format settings, GOP : M=3, N=12
Duration : 16mn 46s
Bit rate mode : Variable
Bit rate : 3 487 Kbps
Maximum bit rate : 5 000 Kbps
Width : 720 pixels
Height : 576 pixels
Display aspect ratio : 4:3
Frame rate : 25.000 fps
Standard : PAL
Color space : YUV
Chroma subsampling : 4:2:0
Bit depth : 8 bits
Scan type : Interlaced
Scan order : Top Field First
Compression mode : Lossy
Bits/(Pixel*Frame) : 0.336
Time code of first frame : 00:00:00:00
Time code source : Group of pictures header
Stream size : 419 MiB (93%)
ID : 192 (0xC0)
Format : MPEG Audio
Format version : Version 1
Format profile : Layer 2
Duration : 16mn 46s
Bit rate mode : Constant
Bit rate : 192 Kbps
Channel(s) : 2 channels
Sampling rate : 48.0 KHz
Compression mode : Lossy
Stream size : 23.0 MiB (5%)



Display posts:    

Current time is: 22-Oct 14:43

All times are UTC + 3

You cannot post new topics in this forum
You cannot reply to topics in this forum
You cannot edit your posts in this forum
You cannot delete your posts in this forum
You cannot vote in polls in this forum
You cannot attach files in this forum
You cannot download files in this forum

The site does not give electronic versions of products, and is engaged only in a collecting and cataloguing of the references sent and published at a forum by our readers. If you are the legal owner of any submitted material and do not wish that the reference to it was in our catalogue, contact us and we shall immediately remove her. Files for an exchange on tracker are given by users of a site, and the administration does not bear the responsibility for their maintenance. The request to not fill in the files protected by copyrights, and also files of the illegal maintenance!