[ Today is free to download without increasing Download ]

DL-List and Torrent activity
Это дело не моё
Страна: СССР
Жанр: Рисованный мультфильм
Продолжительность: 00:06:26
Год выпуска: 1960
Русские субтитры: нет
Режиссёр: Леонид Аристов
Роли озвучивали: А.Полевой, Е.Шутов
Описание: Мультипликационный фильм об опасности пожаров и вреде пьянства (для взрослых)
Доп. информация: „Союзмультфильм“
Художник: В.Никитин
Раздача группы:
Качество: WEBRip
Формат: AVI
Видео: 640x480 (1.33:1), 25 fps, XviD build 50 ~1685 kbps avg, 0.22 bit/pixel
Аудио: 48 kHz, AC3 Dolby Digital, 1/0 (C) ch, ~192.00 kbps avg
Субтитры: нет

Подробные технические данные

Format                                   : AVIFormat/Info                              : Audio Video InterleaveFile size                                : 87.0 MiBDuration                                 : 6mn 26sOverall bit rate                         : 1 888 KbpsWriting application                      : VirtualDubModRus (build 2542/release)Writing library                          : VirtualDubMod build 2542/release
VideoID : 0Format : MPEG-4 VisualFormat profile : Simple@L3Format settings, BVOP : NoFormat settings, QPel : NoFormat settings, GMC : No warppointsFormat settings, Matrix : Default (H.263)Codec ID : XVIDCodec ID/Hint : XviDDuration : 6mn 26sBit rate : 1 686 KbpsWidth : 640 pixelsHeight : 480 pixelsDisplay aspect ratio : 4:3Frame rate : 25.000 fpsColor space : YUVChroma subsampling : 4:2:0Bit depth : 8 bitsScan type : ProgressiveCompression mode : LossyBits/(Pixel*Frame) : 0.220Stream size : 77.7 MiB (89%)Writing library : XviD 1.2.1 (UTC 2008-12-04)
AudioID : 1Format : AC-3Format/Info : Audio Coding 3Mode extension : CM (complete main)Format settings, Endianness : BigCodec ID : 2000Duration : 6mn 26sBit rate mode : ConstantBit rate : 192 KbpsChannel(s) : 1 channelChannel positions : Front: CSampling rate : 48.0 KHzBit depth : 16 bitsCompression mode : LossyStream size : 8.85 MiB (10%)Alignment : Split accross interleavesInterleave, duration : 40 ms (1.00 video frame)Interleave, preload duration : 500 ms



Display posts:    

Current time is: 24-Oct 23:09

All times are UTC + 3

You cannot post new topics in this forum
You cannot reply to topics in this forum
You cannot edit your posts in this forum
You cannot delete your posts in this forum
You cannot vote in polls in this forum
You cannot attach files in this forum
You cannot download files in this forum

The site does not give electronic versions of products, and is engaged only in a collecting and cataloguing of the references sent and published at a forum by our readers. If you are the legal owner of any submitted material and do not wish that the reference to it was in our catalogue, contact us and we shall immediately remove her. Files for an exchange on tracker are given by users of a site, and the administration does not bear the responsibility for their maintenance. The request to not fill in the files protected by copyrights, and also files of the illegal maintenance!