[ Сегодня идет свободное скачивание без начисления Download ]


Статистика раздачи
Нет
 
   
 
Top  
 
 
Ну, погоди! 17-18 выпуски
Страна: Россия
Жанр: мультфильм, комедия, семейный
Продолжительность: 00:09:36 и 00:10:11
Год выпуска: 1993
-
Перевод: Не требуется
Русские субтитры: нет
-
Режиссёр: Вячеслав Котеночкин, Владимир Тарасов
Роли озвучивали: Клара Румянова, Анатолий Папанов
-
Описание: Веселые приключения неразлучной парочки — хулигана Волка и смышленого Зайца. Любимые с детства сцены погонь, ссор и примирений, шутки и мелодии.
-
За исходник спасибо Vovnik (с чешского двд)
-
Качество: DVDRemux
Формат: MPG
Видео 1: 720x576 (4:3), 25.000 fps, MPEG-2 Video, ~5 968 Kbps, 0.576 bits/pixel
Аудио 1: 48 kHz, AC3 Dolby Digital, 2/0 (L,R) ch, ~192 kbps
Видео 2: 720x576 (4:3), 25.000 fps, MPEG-2 Video, ~5 949 Kbps, 0.574 bits/pixel
Аудио 2: 48 kHz, AC3 Dolby Digital, 2/0 (L,R) ch, ~192 kbps
Субтитры: отсутствуют

Подробные технические данные

GeneralComplete name                            : D:\Релизы\Ну, погоди! 17-18 выпуски.1993.DVDRemux\Ну, погоди! 17 выпуск.1993.DVDRemux.mpgFormat                                   : MPEG-PSFile size                                : 432 MiBDuration                                 : 9mn 36sOverall bit rate mode                    : VariableOverall bit rate                         : 6 285 Kbps
VideoID : 224 (0xE0)Format : MPEG VideoFormat version : Version 2Format profile : [email protected] settings, BVOP : YesFormat settings, Matrix : DefaultFormat settings, GOP : VariableDuration : 9mn 36sBit rate mode : VariableBit rate : 5 968 KbpsMaximum bit rate : 9 800 KbpsWidth : 720 pixelsHeight : 576 pixelsDisplay aspect ratio : 4:3Frame rate : 25.000 fpsStandard : PALColor space : YUVChroma subsampling : 4:2:0Bit depth : 8 bitsScan type : ProgressiveScan order : Top Field FirstCompression mode : LossyBits/(Pixel*Frame) : 0.576Stream size : 410 MiB (95%)
AudioID : 189 (0xBD)-128 (0x80)Format : AC-3Format/Info : Audio Coding 3Mode extension : CM (complete main)Format settings, Endianness : BigMuxing mode : DVD-VideoDuration : 9mn 36sBit rate mode : ConstantBit rate : 192 KbpsChannel(s) : 2 channelsChannel positions : Front: L RSampling rate : 48.0 KHzBit depth : 16 bitsCompression mode : LossyDelay relative to video : -80msStream size : 13.2 MiB (3%)
-
GeneralComplete name : D:\Релизы\Ну, погоди! 17-18 выпуски.1993.DVDRemux\Ну, погоди! 18 выпуск.1993.DVDRemux.mpgFormat : MPEG-PSFile size : 457 MiBDuration : 10mn 11sOverall bit rate mode : VariableOverall bit rate : 6 266 Kbps
VideoID : 224 (0xE0)Format : MPEG VideoFormat version : Version 2Format profile : [email protected] settings, BVOP : YesFormat settings, Matrix : CustomFormat settings, GOP : VariableDuration : 10mn 11sBit rate mode : VariableBit rate : 5 949 KbpsMaximum bit rate : 9 800 KbpsWidth : 720 pixelsHeight : 576 pixelsDisplay aspect ratio : 4:3Frame rate : 25.000 fpsStandard : PALColor space : YUVChroma subsampling : 4:2:0Bit depth : 8 bitsScan type : InterlacedScan order : Top Field FirstCompression mode : LossyBits/(Pixel*Frame) : 0.574Stream size : 433 MiB (95%)
AudioID : 189 (0xBD)-128 (0x80)Format : AC-3Format/Info : Audio Coding 3Mode extension : CM (complete main)Format settings, Endianness : BigMuxing mode : DVD-VideoDuration : 10mn 11sBit rate mode : ConstantBit rate : 192 KbpsChannel(s) : 2 channelsChannel positions : Front: L RSampling rate : 48.0 KHzBit depth : 16 bitsCompression mode : LossyStream size : 14.0 MiB (3%)

Скриншоты

17 выпуск

-
18 выпуск

[Цитировать]



Показать сообщения:    

Текущее время: 07-Дек 00:57

Часовой пояс: UTC + 3


Вы не можете начинать темы
Вы не можете отвечать на сообщения
Вы не можете редактировать свои сообщения
Вы не можете удалять свои сообщения
Вы не можете голосовать в опросах
Вы не можете прикреплять файлы к сообщениям
Вы не можете скачивать файлы

!ВНИМАНИЕ!
Сайт не предоставляет электронные версии произведений, а занимается лишь коллекционированием и каталогизацией ссылок, присылаемых и публикуемых на форуме нашими читателями. Если вы являетесь правообладателем какого-либо представленного материала и не желаете, чтобы ссылка на него находилась в нашем каталоге, свяжитесь с нами, и мы незамедлительно удалим ее. Файлы для обмена на трекере предоставлены пользователями сайта, и администрация не несет ответственности за их содержание. Просьба не заливать файлы, защищенные авторскими правами, а также файлы нелегального содержания!