[ Today is free to download without increasing Download ]

DL-List and Torrent activity
Сказка о рыбаке и рыбке
Страна: СССР
Жанр: мультфильм, короткометражка
Продолжительность: 00:29:02
Год выпуска: 1937
Перевод: Не требуется
Русские субтитры: нет
Режиссёр: Александр Птушко
Сценарий: Александр Птушко
Оператор: Федор Фирсов
Композитор: Лев Шварц
Художник: П. Баженов
Описание: Сказка А.С.Пушкина "О рыбаке и рыбке". Жили-были старик со старухою. Пошел однажды старик морю, закинул в него трижды раз невод, а на третий раз вытянул он золотую рыбку. Рыбка на свободу попросилась, а за это пообещала три любых желания исполнить. Пожалел старик рыбку и отпустил обратно в сине море. Как узнала об этом сварливая жена старика, отправила его обратно.
Много у людей пороков, но поди самый страшный - это жадность, за которую бабка и поплатится.
Семпл: http://multi-up.com/878199
Качество: DVDScreener
Формат: AVI
Видео: 720x544 (1.32:1), 25 fps, XviD build 50 ~1997 kbps avg, 0.20 bit/pixel
Аудио: 48 kHz, MPEG Layer 3, 1 ch, ~64.00 kbps avg
Субтитры: отсутствуют

Подробные технические данные

GeneralComplete name                            : C:\ Skazka o ry'bake i ry'bke (1937, cv.ver.).aviFormat                                   : AVIFormat/Info                              : Audio Video InterleaveFile size                                : 430 MiBDuration                                 : 29mn 2sOverall bit rate                         : 2 071 KbpsWriting application                      : VirtualDubMod | www.virtualdub-fr.org || (build 2550/release)Writing library                          : VirtualDubMod build 2550/release
VideoID : 0Format : MPEG-4 VisualFormat profile : Advanced Simple@L5Format settings, BVOP : 3Format settings, QPel : NoFormat settings, GMC : No warppointsFormat settings, Matrix : Default (H.263)Codec ID : XVIDCodec ID/Hint : XviDDuration : 29mn 2sBit rate : 1 997 KbpsWidth : 720 pixelsHeight : 544 pixelsDisplay aspect ratio : 4:3Frame rate : 25.000 fpsColor space : YUVChroma subsampling : 4:2:0Bit depth : 8 bitsScan type : ProgressiveCompression mode : LossyBits/(Pixel*Frame) : 0.204Stream size : 415 MiB (96%)Writing library : XviD 1.2.1 (UTC 2008-12-04)
AudioID : 1Format : MPEG AudioFormat version : Version 1Format profile : Layer 3Codec ID : 55Codec ID/Hint : MP3Duration : 29mn 2sBit rate mode : ConstantBit rate : 64.0 KbpsChannel(s) : 1 channelSampling rate : 48.0 KHzCompression mode : LossyStream size : 13.3 MiB (3%)Alignment : Aligned on interleavesInterleave, duration : 40 ms (1.00 video frame)Interleave, preload duration : 504 ms

Скриншот c названием фильма




Display posts:    

Current time is: 22-Oct 06:36

All times are UTC + 3

You cannot post new topics in this forum
You cannot reply to topics in this forum
You cannot edit your posts in this forum
You cannot delete your posts in this forum
You cannot vote in polls in this forum
You cannot attach files in this forum
You cannot download files in this forum

The site does not give electronic versions of products, and is engaged only in a collecting and cataloguing of the references sent and published at a forum by our readers. If you are the legal owner of any submitted material and do not wish that the reference to it was in our catalogue, contact us and we shall immediately remove her. Files for an exchange on tracker are given by users of a site, and the administration does not bear the responsibility for their maintenance. The request to not fill in the files protected by copyrights, and also files of the illegal maintenance!