[ Сегодня идет свободное скачивание без начисления Download ]


Статистика раздачи
Нет
 
   
 
Top  
 
 
Сказка о рыбаке и рыбке
Страна: СССР
Жанр: мультфильм, короткометражка
Продолжительность: 00:29:02
Год выпуска: 1937
Перевод: Не требуется
Русские субтитры: нет
Режиссёр: Александр Птушко
Сценарий: Александр Птушко
Оператор: Федор Фирсов
Композитор: Лев Шварц
Художник: П. Баженов
Описание: Сказка А.С.Пушкина "О рыбаке и рыбке". Жили-были старик со старухою. Пошел однажды старик морю, закинул в него трижды раз невод, а на третий раз вытянул он золотую рыбку. Рыбка на свободу попросилась, а за это пообещала три любых желания исполнить. Пожалел старик рыбку и отпустил обратно в сине море. Как узнала об этом сварливая жена старика, отправила его обратно.
Много у людей пороков, но поди самый страшный - это жадность, за которую бабка и поплатится.
-
Семпл: http://multi-up.com/878199
Качество: DVDScreener
Формат: AVI
Видео: 720x544 (1.32:1), 25 fps, XviD build 50 ~1997 kbps avg, 0.20 bit/pixel
Аудио: 48 kHz, MPEG Layer 3, 1 ch, ~64.00 kbps avg
Субтитры: отсутствуют

Подробные технические данные

GeneralComplete name                            : C:\ Skazka o ry'bake i ry'bke (1937, cv.ver.).aviFormat                                   : AVIFormat/Info                              : Audio Video InterleaveFile size                                : 430 MiBDuration                                 : 29mn 2sOverall bit rate                         : 2 071 KbpsWriting application                      : VirtualDubMod 1.5.10.3 | www.virtualdub-fr.org || (build 2550/release)Writing library                          : VirtualDubMod build 2550/release
VideoID : 0Format : MPEG-4 VisualFormat profile : Advanced [email protected] settings, BVOP : 3Format settings, QPel : NoFormat settings, GMC : No warppointsFormat settings, Matrix : Default (H.263)Codec ID : XVIDCodec ID/Hint : XviDDuration : 29mn 2sBit rate : 1 997 KbpsWidth : 720 pixelsHeight : 544 pixelsDisplay aspect ratio : 4:3Frame rate : 25.000 fpsColor space : YUVChroma subsampling : 4:2:0Bit depth : 8 bitsScan type : ProgressiveCompression mode : LossyBits/(Pixel*Frame) : 0.204Stream size : 415 MiB (96%)Writing library : XviD 1.2.1 (UTC 2008-12-04)
AudioID : 1Format : MPEG AudioFormat version : Version 1Format profile : Layer 3Codec ID : 55Codec ID/Hint : MP3Duration : 29mn 2sBit rate mode : ConstantBit rate : 64.0 KbpsChannel(s) : 1 channelSampling rate : 48.0 KHzCompression mode : LossyStream size : 13.3 MiB (3%)Alignment : Aligned on interleavesInterleave, duration : 40 ms (1.00 video frame)Interleave, preload duration : 504 ms

Скриншот c названием фильма

Скриншоты

-

[Цитировать]



Показать сообщения:    

Текущее время: 05-Дек 19:39

Часовой пояс: UTC + 3


Вы не можете начинать темы
Вы не можете отвечать на сообщения
Вы не можете редактировать свои сообщения
Вы не можете удалять свои сообщения
Вы не можете голосовать в опросах
Вы не можете прикреплять файлы к сообщениям
Вы не можете скачивать файлы

!ВНИМАНИЕ!
Сайт не предоставляет электронные версии произведений, а занимается лишь коллекционированием и каталогизацией ссылок, присылаемых и публикуемых на форуме нашими читателями. Если вы являетесь правообладателем какого-либо представленного материала и не желаете, чтобы ссылка на него находилась в нашем каталоге, свяжитесь с нами, и мы незамедлительно удалим ее. Файлы для обмена на трекере предоставлены пользователями сайта, и администрация не несет ответственности за их содержание. Просьба не заливать файлы, защищенные авторскими правами, а также файлы нелегального содержания!