[ Сегодня идет свободное скачивание без начисления Download ]


Статистика раздачи
Нет
 
   
 
Top  
 
 
Лиса и волк / Реставрация "Госфильмофонд", 2011
Страна: СССР
Студия: Мосфильм
Жанр: сказка, детский, семейный
Год выпуска: 1936
Продолжительность: 00:18:13
Cубтитры: нет
Режиссер: Сарра Мокиль
Описание: По мотивам русских народных сказок
Доп. информация: Особый интерес вызвала программа отреставрированных цветных мультфильмов, снятых 70 лет назад на Мосфильме по трехцветному методу Мершина. Первый опыт цветной анимации принадлежит «перу» режиссера Сарры Мокиль (художественный руководитель Александр Птушко). Мультфильм «Лиса и волк» был создан в 1936 году на киностудии «Мосфильм», и до войны успешно демонстрировался по всей стране. При восстановлении фильма выяснилось, что последний цветной эпизод не сохранился. Не удалось найти даже чёрно-белой копии, но зато сохранились фонограмма и монтажный лист. Благодаря этим находками специалисты по реставрации восстановили цветную версию фильма и практически, довели сказку до финала.
К слову сказать, Сарра Мокиль освежила сказку креативным решением. Лиса, к примеру, чтобы облегчить себе доставку теленка, из пня профессионально выпиливает колеса для тележки, а когда теленка съедает серый волк, то от него остаются ни кожа, да кости, а сдутая оболочка, как у резиновой игрушки.
Релиз: Феникс-клуб. Рип - pmv. Исходный материал предоставил Некто Андрей.
Доп. информация: http://www.animator.ru/db/?p=show_film&fid=2482
Качество видео: DVDScreener
Формат видео: AVI
Видео: 720x544 (1.32:1), 25 fps, XviD build 50 ~1999 kbps avg, 0.20 bit/pixel
Аудио: 48 kHz, MPEG Layer 3, 2 ch, ~128.00 kbps avg

MediaInfo

General
Complete name : C:\Sbornik.100.let.ote4estvennoi.animacii\Лиса и волк (цв., 1936).avi
Format : AVI
Format/Info : Audio Video Interleave
File size : 270 MiB
Duration : 18mn 13s
Overall bit rate : 2 074 Kbps
Writing application : VirtualDubMod 1.5.10.3 | www.virtualdub-fr.org || (build 2550/release)
Writing library : VirtualDubMod build 2550/release
Video
ID : 0
Format : MPEG-4 Visual
Format profile : Advanced Simple@L5
Format settings, BVOP : 3
Format settings, QPel : No
Format settings, GMC : No warppoints
Format settings, Matrix : Default (H.263)
Codec ID : XVID
Codec ID/Hint : XviD
Duration : 18mn 13s
Bit rate : 2 000 Kbps
Width : 720 pixels
Height : 544 pixels
Display aspect ratio : 4:3
Frame rate : 25.000 fps
Color space : YUV
Chroma subsampling : 4:2:0
Bit depth : 8 bits
Scan type : Progressive
Compression mode : Lossy
Bits/(Pixel*Frame) : 0.204
Stream size : 261 MiB (96%)
Writing library : XviD 1.2.1 (UTC 2008-12-04)
Audio
ID : 1
Format : MPEG Audio
Format version : Version 1
Format profile : Layer 3
Codec ID : 55
Codec ID/Hint : MP3
Duration : 18mn 13s
Bit rate mode : Constant
Bit rate : 64.0 Kbps
Channel(s) : 1 channel
Sampling rate : 48.0 KHz
Compression mode : Lossy
Stream size : 8.35 MiB (3%)
Alignment : Aligned on interleaves
Interleave, duration : 40 ms (1.00 video frame)
Interleave, preload duration : 504 ms

[Цитировать]



Показать сообщения:    

Текущее время: 07-Дек 13:39

Часовой пояс: UTC + 3


Вы не можете начинать темы
Вы не можете отвечать на сообщения
Вы не можете редактировать свои сообщения
Вы не можете удалять свои сообщения
Вы не можете голосовать в опросах
Вы не можете прикреплять файлы к сообщениям
Вы не можете скачивать файлы

!ВНИМАНИЕ!
Сайт не предоставляет электронные версии произведений, а занимается лишь коллекционированием и каталогизацией ссылок, присылаемых и публикуемых на форуме нашими читателями. Если вы являетесь правообладателем какого-либо представленного материала и не желаете, чтобы ссылка на него находилась в нашем каталоге, свяжитесь с нами, и мы незамедлительно удалим ее. Файлы для обмена на трекере предоставлены пользователями сайта, и администрация не несет ответственности за их содержание. Просьба не заливать файлы, защищенные авторскими правами, а также файлы нелегального содержания!