[ Сегодня идет свободное скачивание без начисления Download ]


Статистика раздачи
Нет
 
   
 
Top  
 
 
Про Матвея Кузьмича
Страна: СССР, Союзтелефильм
Жанр: Мультфильм для взрослых, кукольный.
Продолжительность: 00:09:40
Год выпуска: 1990
Русские субтитры: нет
Режиссёр: Дмитрий Наумов, Ольга Розовска
Описание: Мультипликационный фильм для взрослых об одном дне председателя каолхоза в эпоху "перестройки и гласности".
Качество: DVB
Формат: MPEG-PS
Видео: MPEG2 Video 720x576 (4:3) 25.00fps 4 732 Kbps
Аудио: MPEG Audio 48000Hz. 2 channels. 192kbps
Субтитры: нет.

Подробные технические данные

GeneralComplete name                    : D:\Video\Про Матвея Кузьмича.mpgFormat                           : MPEG-PSFile size                        : 355 MiBDuration                         : 9mn 40sOverall bit rate                 : 5 128 Kbps
VideoID : 224 (0xE0)Format : MPEG VideoFormat version : Version 2Format profile : Main@MainFormat settings, Matrix : DefaultDuration : 9mn 40sBit rate mode : VariableBit rate : 4 732 KbpsNominal bit rate : 15.0 MbpsWidth : 720 pixelsHeight : 576 pixelsDisplay aspect ratio : 4:3Frame rate : 25.000 fpsStandard : PALColorimetry : 4:2:0Scan type : InterlacedScan order : Top Field FirstBits/(Pixel*Frame) : 0.456Stream size : 327 MiB (92%)
AudioID : 192 (0xC0)Format : MPEG AudioFormat version : Version 1Format profile : Layer 2Duration : 9mn 40sBit rate mode : ConstantBit rate : 192 KbpsChannel(s) : 2 channelsSampling rate : 48.0 KHzResolution : 16 bitsVideo delay : 15msStream size : 13.3 MiB (4%)

Скриншоты



[Цитировать]



Показать сообщения:    

Текущее время: 11-Дек 12:58

Часовой пояс: UTC + 3


Вы не можете начинать темы
Вы не можете отвечать на сообщения
Вы не можете редактировать свои сообщения
Вы не можете удалять свои сообщения
Вы не можете голосовать в опросах
Вы не можете прикреплять файлы к сообщениям
Вы не можете скачивать файлы

!ВНИМАНИЕ!
Сайт не предоставляет электронные версии произведений, а занимается лишь коллекционированием и каталогизацией ссылок, присылаемых и публикуемых на форуме нашими читателями. Если вы являетесь правообладателем какого-либо представленного материала и не желаете, чтобы ссылка на него находилась в нашем каталоге, свяжитесь с нами, и мы незамедлительно удалим ее. Файлы для обмена на трекере предоставлены пользователями сайта, и администрация не несет ответственности за их содержание. Просьба не заливать файлы, защищенные авторскими правами, а также файлы нелегального содержания!