[ Today is free to download without increasing Download ]

DL-List and Torrent activity
Про Матвея Кузьмича
Страна: СССР, Союзтелефильм
Жанр: Мультфильм для взрослых, кукольный.
Продолжительность: 00:09:40
Год выпуска: 1990
Русские субтитры: нет
Режиссёр: Дмитрий Наумов, Ольга Розовска
Описание: Мультипликационный фильм для взрослых об одном дне председателя каолхоза в эпоху "перестройки и гласности".
Качество: DVB
Формат: MPEG-PS
Видео: MPEG2 Video 720x576 (4:3) 25.00fps 4 732 Kbps
Аудио: MPEG Audio 48000Hz. 2 channels. 192kbps
Субтитры: нет.

Подробные технические данные

GeneralComplete name                    : D:\Video\Про Матвея Кузьмича.mpgFormat                           : MPEG-PSFile size                        : 355 MiBDuration                         : 9mn 40sOverall bit rate                 : 5 128 Kbps
VideoID : 224 (0xE0)Format : MPEG VideoFormat version : Version 2Format profile : Main@MainFormat settings, Matrix : DefaultDuration : 9mn 40sBit rate mode : VariableBit rate : 4 732 KbpsNominal bit rate : 15.0 MbpsWidth : 720 pixelsHeight : 576 pixelsDisplay aspect ratio : 4:3Frame rate : 25.000 fpsStandard : PALColorimetry : 4:2:0Scan type : InterlacedScan order : Top Field FirstBits/(Pixel*Frame) : 0.456Stream size : 327 MiB (92%)
AudioID : 192 (0xC0)Format : MPEG AudioFormat version : Version 1Format profile : Layer 2Duration : 9mn 40sBit rate mode : ConstantBit rate : 192 KbpsChannel(s) : 2 channelsSampling rate : 48.0 KHzResolution : 16 bitsVideo delay : 15msStream size : 13.3 MiB (4%)



Display posts:    

Current time is: 24-Oct 13:37

All times are UTC + 3

You cannot post new topics in this forum
You cannot reply to topics in this forum
You cannot edit your posts in this forum
You cannot delete your posts in this forum
You cannot vote in polls in this forum
You cannot attach files in this forum
You cannot download files in this forum

The site does not give electronic versions of products, and is engaged only in a collecting and cataloguing of the references sent and published at a forum by our readers. If you are the legal owner of any submitted material and do not wish that the reference to it was in our catalogue, contact us and we shall immediately remove her. Files for an exchange on tracker are given by users of a site, and the administration does not bear the responsibility for their maintenance. The request to not fill in the files protected by copyrights, and also files of the illegal maintenance!