[ Сегодня идет свободное скачивание без начисления Download ]


Статистика раздачи
Нет
 
   
 
Top  
 
 
Лисенок. Эй, на том берегу!
Страна: Россия
Жанр: Рисованная анимация
Продолжительность: 00:09:01
Год выпуска: 1992
Русские субтитры: нет
Режиссёр: Борис Тузанович
Роли озвучивали: Л. Гнилова, Е. Герчаков, Р. Суховерко
Описание: Маленький Лисёнок увидел на другом берегу реки огонёк и спросил у Вороны: «Ты не знаешь, кто там живёт?». Ворона ответила: «Дракон! Трёхголовый монстр! Так все говорят!». И тут с того берега раздался тоскливый вой. Ворона улетела. Лисёнок подумал, что может быть нужна его помощь и поплыл на лодке на другой берег реки. Переплывая, он представлял себе, как выглядит говорящий трёхголовый дракон.
На том берегу Лисёнок увидел досочный забор, чей вход украшала табличка: «Осторожно злая собака». Калитку отворил старый сторожевой пёс по имени Дракон с ружьём и на цепи. Он жил здесь один и охранял дачу. А выл от одиночества. Лисёнок пригласил его приходить к ним в гости и позвал покататься на лодке. Пёс снял цепь и они поплыли по реке.
Качество: DVB
Формат: MPEG-PS
Видео: MPEG2 Video 720x576 (4:3) 25.00fps 4 732 Kbps
Аудио: MPEG Audio 48000Hz. 2 channels. 192kbps
Субтитры: нет

Подробные технические данные

GeneralComplete name                    : D:\Video\Эй на том берегу.mpgFormat                           : MPEG-PSFile size                        : 331 MiBDuration                         : 9mn 0sOverall bit rate                 : 5 129 Kbps
VideoID : 224 (0xE0)Format : MPEG VideoFormat version : Version 2Format profile : Main@MainFormat settings, Matrix : DefaultDuration : 9mn 0sBit rate mode : VariableBit rate : 4 734 KbpsNominal bit rate : 15.0 MbpsWidth : 720 pixelsHeight : 576 pixelsDisplay aspect ratio : 4:3Frame rate : 25.000 fpsStandard : PALColorimetry : 4:2:0Scan type : InterlacedScan order : Top Field FirstBits/(Pixel*Frame) : 0.457Stream size : 305 MiB (92%)
AudioID : 192 (0xC0)Format : MPEG AudioFormat version : Version 1Format profile : Layer 2Duration : 9mn 0sBit rate mode : ConstantBit rate : 192 KbpsChannel(s) : 2 channelsSampling rate : 48.0 KHzResolution : 16 bitsVideo delay : 15msStream size : 12.4 MiB (4%)

Скриншоты



[Цитировать]



Показать сообщения:    

Текущее время: 09-Дек 12:34

Часовой пояс: UTC + 3


Вы не можете начинать темы
Вы не можете отвечать на сообщения
Вы не можете редактировать свои сообщения
Вы не можете удалять свои сообщения
Вы не можете голосовать в опросах
Вы не можете прикреплять файлы к сообщениям
Вы не можете скачивать файлы

!ВНИМАНИЕ!
Сайт не предоставляет электронные версии произведений, а занимается лишь коллекционированием и каталогизацией ссылок, присылаемых и публикуемых на форуме нашими читателями. Если вы являетесь правообладателем какого-либо представленного материала и не желаете, чтобы ссылка на него находилась в нашем каталоге, свяжитесь с нами, и мы незамедлительно удалим ее. Файлы для обмена на трекере предоставлены пользователями сайта, и администрация не несет ответственности за их содержание. Просьба не заливать файлы, защищенные авторскими правами, а также файлы нелегального содержания!