[ Today is free to download without increasing Download ]

DL-List and Torrent activity
Отчаянный кот Васька
Жанр: мультфильм
Год выпуска: 1985
Продолжительность: 00:09:57
Режиссёр: Александр Викен
Описание: Рыжий котенок Васька увидел открытый люк на крыше высотного дома и не мог устоять перед своим любопытством - а что там. Но люк закрылся и Васька остался на крыше. Сообразительный котенок нашел способ как выйти из данной сиутации и вернуться домой…
Доп. информация:

Трансляция спутникового канала: "Карусель"
Качество видео: DVB
Формат видео: MPEG-TS
Видео: MPEG4 Video (H264), 720x576@785x576 (4:3), анаморф, 25 fps, 2000 kbps
Аудио: MPEG Audio, 2 сh, 48 kHz, 192 kbps


ID : 1 (0x1)
Complete name : D:\Отчаянный кот Васька. (1985)_DVB by SLuMeP.ts
Format : MPEG-TS
File size : 159 MiB
Duration : 9mn 57s
Overall bit rate mode : Variable
Overall bit rate : 2 233 Kbps
ID : 2251 (0x8CB)
Menu ID : 1 (0x1)
Format : AVC
Format/Info : Advanced Video Codec
Format profile : Main@L3.0
Format settings, CABAC : Yes
Format settings, ReFrames : 3 frames
Codec ID : 27
Duration : 9mn 57s
Bit rate : 1 929 Kbps
Width : 720 pixels
Height : 576 pixels
Display aspect ratio : 4:3
Frame rate : 25.000 fps
Standard : Component
Color space : YUV
Chroma subsampling : 4:2:0
Bit depth : 8 bits
Scan type : Progressive
Bits/(Pixel*Frame) : 0.186
Stream size : 137 MiB (86%)
Color primaries : BT.601 PAL
Transfer characteristics : BT.470 System B, BT.470 System G
Matrix coefficients : BT.601
ID : 2252 (0x8CC)
Menu ID : 1 (0x1)
Format : MPEG Audio
Format version : Version 1
Format profile : Layer 2
Codec ID : 3
Duration : 9mn 57s
Bit rate mode : Constant
Bit rate : 192 Kbps
Channel(s) : 2 channels
Sampling rate : 48.0 KHz
Compression mode : Lossy
Delay relative to video : -40ms
Stream size : 13.7 MiB (9%)
Language : English



Display posts:    

Current time is: 27-Oct 00:13

All times are UTC + 3

You cannot post new topics in this forum
You cannot reply to topics in this forum
You cannot edit your posts in this forum
You cannot delete your posts in this forum
You cannot vote in polls in this forum
You cannot attach files in this forum
You cannot download files in this forum

The site does not give electronic versions of products, and is engaged only in a collecting and cataloguing of the references sent and published at a forum by our readers. If you are the legal owner of any submitted material and do not wish that the reference to it was in our catalogue, contact us and we shall immediately remove her. Files for an exchange on tracker are given by users of a site, and the administration does not bear the responsibility for their maintenance. The request to not fill in the files protected by copyrights, and also files of the illegal maintenance!