[ Сегодня идет свободное скачивание без начисления Download ]


Статистика раздачи
Нет
 
   
 
Top  
 
 
Следы на асфальте
Жанр: мультфильм
Год выпуска: 1964
Продолжительность: 00:15:54
Режиссёр: Владимир Данилов, Вячеслав Котеночкин
Описание: Мультипликационный фильм о том, как щенок с помощью старого пса разыскивают по следам на асфальте хозяина щенка, уехавшего на велосипеде. В ходе расследования следопыты выясняют, что мальчик постоянно нарушал правила дорожного движения. Именно поэтому они нашли мальчика, но в ... больнице.
Доп. информация: Награды
1967 — IV МКФ фильмов соцстран по охране труда, Будапешт — Серебряная медаль в категории кукольных и рисованных фильмов


Трансляция спутникового канала: "Карусель"
Качество видео: DVB
Формат видео: MPEG-PS
Видео: MPEG2 Video, 720x576, 25 fps, 3000 kbps
Аудио: MPEG Audio, 2 сh, 48 kHz, 192 kbps

MediaInfo

General
Complete name : D:\Следы на асфальте. (1964)_DVB by SLuMeP.mpg
Format : MPEG-PS
File size : 367 MiB
Duration : 15mn 54s
Overall bit rate mode : Variable
Overall bit rate : 3 221 Kbps
Video
ID : 224 (0xE0)
Format : MPEG Video
Format version : Version 2
Format profile : [email protected]
Format settings, BVOP : Yes
Format settings, Matrix : Custom
Format settings, GOP : M=3, N=12
Duration : 15mn 54s
Bit rate mode : Variable
Bit rate : 2 965 Kbps
Maximum bit rate : 5 000 Kbps
Width : 720 pixels
Height : 576 pixels
Display aspect ratio : 4:3
Frame rate : 25.000 fps
Standard : PAL
Color space : YUV
Chroma subsampling : 4:2:0
Bit depth : 8 bits
Scan type : Interlaced
Scan order : Top Field First
Compression mode : Lossy
Bits/(Pixel*Frame) : 0.286
Time code of first frame : 00:00:00:00
Time code source : Group of pictures header
Stream size : 337 MiB (92%)
Audio
ID : 192 (0xC0)
Format : MPEG Audio
Format version : Version 1
Format profile : Layer 2
Duration : 15mn 54s
Bit rate mode : Constant
Bit rate : 192 Kbps
Channel(s) : 2 channels
Sampling rate : 48.0 KHz
Compression mode : Lossy
Stream size : 21.9 MiB (6%)

Скриншоты

[Цитировать]



Показать сообщения:    

Текущее время: 06-Дек 15:10

Часовой пояс: UTC + 3


Вы не можете начинать темы
Вы не можете отвечать на сообщения
Вы не можете редактировать свои сообщения
Вы не можете удалять свои сообщения
Вы не можете голосовать в опросах
Вы не можете прикреплять файлы к сообщениям
Вы не можете скачивать файлы

!ВНИМАНИЕ!
Сайт не предоставляет электронные версии произведений, а занимается лишь коллекционированием и каталогизацией ссылок, присылаемых и публикуемых на форуме нашими читателями. Если вы являетесь правообладателем какого-либо представленного материала и не желаете, чтобы ссылка на него находилась в нашем каталоге, свяжитесь с нами, и мы незамедлительно удалим ее. Файлы для обмена на трекере предоставлены пользователями сайта, и администрация не несет ответственности за их содержание. Просьба не заливать файлы, защищенные авторскими правами, а также файлы нелегального содержания!