[ Сегодня идет свободное скачивание без начисления Download ]


Статистика раздачи
Нет
 
   
 
Top  
 
 
Лектор- Год выпуска: 2011
Страна: Россия
Выпущено: "Студия Анкор"
Жанр: Детектив
Продолжительность: 8 x ~ 00:44:00-Перевод: Не требуется
Cубтитры: нет
Оригинальная аудиодорожка: русский-Режиссер: Вадим Шмелев-В ролях: Дмитрий Певцов, Фёдор Бондарчук, Екатерина Гусева, Михаил Хмуров, Александр Рапопорт, Андрей Ильин, Алексей Макаров, Игорь Верник, Александр Носик, Даниил Спиваковский, Андрей Руденский, Ольга Филиппова, Анатолий Кот, Алиса Гребенщикова, Азиз Бейшеналиев, Марина Блейк, Андрей Градов, Владимир Тишко, Дмитрий Комов, Михаил Дорожкин, Игорь Арташонов, Вячеслав Бондарчук, Олег Васильков, Павел Сметанкин, Алексей Гнилицкий, Роман Грохольский, Анна Данькова, Андрей Лебедев, Вадим Медведев, Александр Наумов, Дарья Носик, Екатерина Носик, Андрей Финягин, Олег Чудницов, Сергей Чудаков, Мария Антипова, Ирина Томская, Евгений Воловенко, Александр Коржов, Сергей Стёпин, Александр Хованский, Святослав Чирков, Игорь Мирк-Описание: Взрыв машины в центре Москвы. Двойной агент в недрах российских спецслужб. Международный торговец оружием «под колпаком» у МИ-6. Отравленный в Лондоне диссидент. Монах из Косово, спасающий уникальную икону. Американские ПРО в Восточной Европе. Расстрелянный в Варшаве террорист. Знаменитый российский физик в центре политического скандала. Опасный преступник, живущий в Таллинне под чужим именем и под чужим лицом. Все это – «безумный» мир вокруг них. Он – профессор политологии. Она – «свободная» художница. А между ними странное чувство… очень похожее на любовь.- -Сэмпл--Тип релиза: BDRip 720p [Рип с Blu-ray 1080p by Inbor]
Контейнер: MKV
Реклама отсутствует!-Видео: MPEG4 AVC / 5614 Kbps / 1280x720 [16:9] / 23.976 fps
Аудио: AC-3 / 448 Kbps / 6 ch / 48.0 KHz

MediaInfo

C:\Lektor.(1.serija.iz.8).2011.x264.BDRip.(720p).mkv
General
Complete name : C:\Lektor.(1.serija.iz.8).2011.x264.BDRip.(720p).mkv
Format : Matroska
File size : 1.98 GiB
Duration : 45mn 56s
Overall bit rate : 6 185 Kbps
Movie name : _INBOR_
Encoded date : UTC 2012-05-27 06:22:28
Writing application : mkvmerge v2.4.1 ('Use Me') built on Dec 5 2008 15:43:32
Writing library : libebml v0.7.7 + libmatroska v0.8.1
Video #1
ID : 1
Format : AVC
Format/Info : Advanced Video Codec
Format profile : High@L4.1
Format settings, CABAC : Yes
Format settings, ReFrames : 9 frames
Muxing mode : Container profile=Unknown@4.1
Codec ID : V_MPEG4/ISO/AVC
Duration : 45mn 53s
Bit rate : 5 614 Kbps
Nominal bit rate : 6 000 Kbps
Width : 1 280 pixels
Height : 720 pixels
Display aspect ratio : 16:9
Frame rate : 23.976 fps
Resolution : 24 bits
Colorimetry : 4:2:0
Scan type : Progressive
Bits/(Pixel*Frame) : 0.254
Stream size : 1.80 GiB (91%)
Writing library : x264 core 116 r2074 2641b9e
Encoding settings : cabac=1 / ref=9 / deblock=1:-3:-3 / analyse=0x3:0x133 / me=umh / subme=8 / psy=1 / psy_rd=1.00:0.10 / mixed_ref=1 / me_range=48 / chroma_me=1 / trellis=2 / 8x8dct=1 / cqm=0 / deadzone=21,11 / fast_pskip=0 / chroma_qp_offset=-3 / threads=6 / sliced_threads=0 / nr=0 / decimate=1 / interlaced=0 / bluray_compat=0 / constrained_intra=0 / bframes=4 / b_pyramid=2 / b_adapt=2 / b_bias=0 / direct=3 / weightb=1 / open_gop=0 / weightp=2 / keyint=250 / keyint_min=23 / scenecut=40 / intra_refresh=0 / rc_lookahead=40 / rc=2pass / mbtree=1 / bitrate=6000 / ratetol=1.0 / qcomp=0.60 / qpmin=10 / qpmax=51 / qpstep=4 / cplxblur=20.0 / qblur=0.5 / ip_ratio=1.40 / aq=1:1.00
Language : English
Audio #2
ID : 2
Format : AC-3
Format/Info : Audio Coding 3
Codec ID : A_AC3
Duration : 45mn 56s
Bit rate mode : Constant
Bit rate : 448 Kbps
Channel(s) : 6 channels
Channel positions : Front: L C R, Surround: L R, LFE
Sampling rate : 48.0 KHz
Stream size : 147 MiB (7%)

Скриншоты


[Цитировать]



Показать сообщения:    

Текущее время: 09-Дек 02:57

Часовой пояс: UTC + 3


Вы не можете начинать темы
Вы не можете отвечать на сообщения
Вы не можете редактировать свои сообщения
Вы не можете удалять свои сообщения
Вы не можете голосовать в опросах
Вы не можете прикреплять файлы к сообщениям
Вы не можете скачивать файлы

!ВНИМАНИЕ!
Сайт не предоставляет электронные версии произведений, а занимается лишь коллекционированием и каталогизацией ссылок, присылаемых и публикуемых на форуме нашими читателями. Если вы являетесь правообладателем какого-либо представленного материала и не желаете, чтобы ссылка на него находилась в нашем каталоге, свяжитесь с нами, и мы незамедлительно удалим ее. Файлы для обмена на трекере предоставлены пользователями сайта, и администрация не несет ответственности за их содержание. Просьба не заливать файлы, защищенные авторскими правами, а также файлы нелегального содержания!