[ Сегодня идет свободное скачивание без начисления Download ]


Статистика раздачи
Нет
 
   
 
Top  
 
 
Половинки
Год выпуска: 2013
Производство: ООО "SANTA MEDIA"
Жанр: романтический комедийный сериал
Продолжительность: ~ 23 мин серия
Субтитры: Нет
Режиссёр: Михаил Поляков, Андрей Стрелков
В ролях: Никита Дювбанов, Наталья Варнакова, Виктор Глушко, Марина Губина, Лана Щербакова, Дарья Герман
Описание: Ник – ви-джей на телеке. Он любит свою работу. И Наташу. А еще - смешно шутить, болтать с приятелем за жизнь, качая бицуху в спортзале, и показывать своим коллегам, кто главный!
Наташа любит пушистых котят. А еще – вкусно поесть, сказать пару милых глупостей и посплетничать с подругой, потягивая вкусный коктейль. И, конечно, она любит Ника. И иногда вьет из него веревки.
Эта влюбленная парочка вместе уже три года, но кризис в отношениях им явно не грозит. Потому что Наташа любит Никиту, а он… обладает хорошим чувством юмора! Каждый день они выясняют отношения, устраивают друг другу сюрпризы и просто наслаждаются жизнью вместе. Потому что они - половинки!
Раздача группы:
Сэмпл

1-3 серии

Качество: DVB
Формат: MPG
Видео кодек: MPEG2
Аудио кодек: MP2
Видео: MPEG2, 704х576, 2856 Kbps, 25 fps, Bits/(Pixel*Frame) : 0.282
Аудио: MP2, 192 Kbps, 2 ch, 48 KHz

MI

G:\КОМЕДИИ\Половинки (2 сезон)\01 серия.mpg
General
Complete name : G:\КОМЕДИИ\Половинки (2 сезон)\01 серия.mpg
Format : MPEG-PS
File size : 500 MiB
Duration : 22mn 17s
Overall bit rate : 3 135 Kbps
Writing library : (c) 1998-2011 Womble Multimedia, Inc. / MPEG Video Wizard DVD 5.0.1.100 (03/2011) / May 27 2011
Video #224
ID : 224 (0xE0)
Format : MPEG Video
Format version : Version 2
Format profile : Main@Main
Format settings, BVOP : Yes
Format settings, Matrix : Default
Duration : 22mn 17s
Bit rate : 2 856 Kbps
Width : 704 pixels
Height : 576 pixels
Display aspect ratio : 4:3
Frame rate : 25.000 fps
Standard : PAL
Color space : YUV
Chroma subsampling : 4:2:0
Bit depth : 8 bits
Compression mode : Lossy
Bits/(Pixel*Frame) : 0.282
Stream size : 459 MiB (92%)
Writing library : (c) 1998-2011 Womble Multimedia, Inc. / MPEG Video Wizard DVD 5.0.1.100 (03/2011) / May 27 2011
Audio #192
ID : 192 (0xC0)
Format : MPEG Audio
Format version : Version 1
Format profile : Layer 2
Duration : 22mn 17s
Bit rate mode : Constant
Bit rate : 192 Kbps
Channel(s) : 2 channels
Sampling rate : 48.0 KHz
Compression mode : Lossy
Stream size : 30.6 MiB (6%)

Скриншоты

4-20 серии

Качество: DVB
Формат: MPG
Видео кодек: MPEG2
Аудио кодек: MP2
Видео: MPEG2, 720х576, 3673 Kbps, 25 fps, Bits/(Pixel*Frame) : 0.354
Аудио: MP2, 192 Kbps, 2 ch, 48 KHz

MI

G:\СЕРИАЛЫ\Половинки (2 сезон)\05 серия.mpg
General
Complete name : G:\СЕРИАЛЫ\Половинки (2 сезон)\05 серия.mpg
Format : MPEG-PS
File size : 660 MiB
Duration : 23mn 24s
Overall bit rate mode : Variable
Overall bit rate : 3 944 Kbps
Video #224
ID : 224 (0xE0)
Format : MPEG Video
Format version : Version 2
Format profile : Main@Main
Format settings, BVOP : Yes
Format settings, Matrix : Custom
Format settings, GOP : M=1, N=28
Duration : 23mn 24s
Bit rate mode : Variable
Bit rate : 3 673 Kbps
Maximum bit rate : 15.0 Mbps
Width : 720 pixels
Height : 576 pixels
Display aspect ratio : 4:3
Frame rate : 25.000 fps
Standard : PAL
Color space : YUV
Chroma subsampling : 4:2:0
Bit depth : 8 bits
Scan type : Interlaced
Scan order : Top Field First
Compression mode : Lossy
Bits/(Pixel*Frame) : 0.354
Stream size : 615 MiB (93%)
Audio #192
ID : 192 (0xC0)
Format : MPEG Audio
Format version : Version 1
Format profile : Layer 2
Duration : 23mn 24s
Bit rate mode : Constant
Bit rate : 192 Kbps
Channel(s) : 2 channels
Sampling rate : 48.0 KHz
Compression mode : Lossy
Delay relative to video : 20ms
Stream size : 32.2 MiB (5%)

Скриншоты

[Цитировать]



Показать сообщения:    

Текущее время: 10-Дек 19:34

Часовой пояс: UTC + 3


Вы не можете начинать темы
Вы не можете отвечать на сообщения
Вы не можете редактировать свои сообщения
Вы не можете удалять свои сообщения
Вы не можете голосовать в опросах
Вы не можете прикреплять файлы к сообщениям
Вы не можете скачивать файлы

!ВНИМАНИЕ!
Сайт не предоставляет электронные версии произведений, а занимается лишь коллекционированием и каталогизацией ссылок, присылаемых и публикуемых на форуме нашими читателями. Если вы являетесь правообладателем какого-либо представленного материала и не желаете, чтобы ссылка на него находилась в нашем каталоге, свяжитесь с нами, и мы незамедлительно удалим ее. Файлы для обмена на трекере предоставлены пользователями сайта, и администрация не несет ответственности за их содержание. Просьба не заливать файлы, защищенные авторскими правами, а также файлы нелегального содержания!