[ Сегодня идет свободное скачивание без начисления Download ]


Статистика раздачи
Нет
 
   
 
Top  
 
 
Братаны 4
Год выпуска: 2014
Производство: Россия, Мостелефильм
Жанр: Боевик, криминал, детектив
Продолжительность: 00:45:00
Субтитры: нет
Режиссёр: Владимир Виноградов (II)
В ролях: Алексей Кравченко, Сергей Селин, Антон Хабаров, Даниил Воробьёв, Дмитрий Назаров, Дарья Калмыкова, Наталья Коренная, Надежда Борисова, Александра Флоринская, Сергей Жарков, Александр Сирин, Александр Терешко, Игорь Филиппов, Евгений Ермаков, Андрей Москвичев, Алина Кизиярова, Борис Каморзин, Сергей Калашников, Валерий Баринов, Владимир Епифанцев, Алексей Колган, Фархад Махмудов, Анастасия Веденская, Венчислав Хотяновский, Александр Арефьев, Олег Соколов (III), Константин Адаев, Сергей Чудаков, Анастасия Сорокина, Константин Столяров, Максим Амельченко, Павел Новиков, Константин Желдин, Виталий Кудрявцев, Тимофей Каратаев, Виктор Потапешкин
Описание: Четверо друзей-десантников, не раз вместе проходивших и огонь и воду, в обыденной жизни не могут найти себя. Бытовые и семейные проблемы, кажется, вот-вот дадут трещину их многолетней дружбе… И только случайная встреча Макара Крылова с особо опасным преступником Юрием Журбиным помогает братанам вновь сплотиться, чтобы помочь попавшему в беду товарищу... По долгу службы Макар пытается задержать Журбина, который числится в федеральном розыске. Ловкий и изворотливый бандит рассчитывает скрыться, берет заложника и в итоге… погибает. Так срывается совместная операция МВД и ФСБ: спецслужбы долгое время вели Юрка, чтобы выйти на его контакты. Начальство Макара, который и не догадывался о слежке за Журбиным, приходит в ярость и переводит полицейского в маленький приморский городок. Отправляясь на место назначения, Макар не подозревает, что на этом череда его неприятностей не заканчивается. Со смертью Юрка он нажил себе непримиримого врага в лице старшего брата погибшего – босса огромного наркокартеля, который посылает в Приморск киллера для ликвидации Крылова.
Все раздачи сериала:

Качество: SATRip
Формат: AVI
Видео кодек: XviD
Аудио кодек:AC3
Видео: 720x400 (1.80:1), 25 fps, XviD build 73 ~1477 kbps avg, 0.20 bit/pixel
Аудио: 48 kHz, AC3 Dolby Digital, 2/0 (L,R) ch, ~192 kbps
Сторонней рекламы нет!

MI

ОбщееПолное имя                       : D:\Братаны 4 SATRip XviD\Братаны 4 01_серия_SATRip_XviD.aviФормат                           : AVIФормат/Информация                : Audio Video InterleaveРазмер файла                     : 551 МбайтПродолжительность                : 45 м.Общий поток                      : 1679 Кбит/секПрограмма кодирования            : VirtualDubMod 1.5.10.3 | www.virtualdub-fr.org || (build 2550/release)Библиотека кодирования           : Boilsoft AVI tool build 1/release
ВидеоИдентификатор : 0Формат : MPEG-4 VisualПрофиль формата : Advanced Simple@L5Параметр BVOP формата : 1Параметр QPel формата : НетПараметр GMC формата : Без точки переходаПараметр матрицы формата : ВыборочнаяИдентификатор кодека : XVIDИдентификатор кодека/Подсказка : XviDПродолжительность : 45 м.Битрейт : 1478 Кбит/секШирина : 720 пикс.Высота : 400 пикс.Соотношение сторон : 16:9Частота кадров : 25,000 кадр/секЦветовое пространство : YUVПодвыборка цветности : 4:2:0Битовая глубина : 8 битТип развёртки : ПрогрессивнаяМетод сжатия : С потерямиБит/(Пиксели*Кадры) : 0.205Размер потока : 485 Мбайт (88%)Библиотека кодирования : XviD 73
АудиоИдентификатор : 1Формат : AC-3Формат/Информация : Audio Coding 3Расширение режима : CM (complete main)Идентификатор кодека : 2000Продолжительность : 45 м.Вид битрейта : ПостоянныйБитрейт : 192 Кбит/секКаналы : 2 каналаРасположение каналов : Front: L RЧастота : 48,0 КГцБитовая глубина : 16 битМетод сжатия : С потерямиРазмер потока : 63,0 Мбайт (11%)Выравнивание : Разделение по промежуткамПродолжительность промежутка : 40 мс. (1,00 видеокадр)Время предзагрузки промежутка : 500 ms
Раздача группы:
Отдельное спасибо nikolspup за предоставление материала.

Внимание ! Раздача ведётся путём добавления новых серий

Внимание! Раздача ведётся путём добавления новых серий; при каждом добавлении создётся новый торрент. Чтобы начать докачку новой серии, пользователям необходимо сделать следующее:
(1) остановить скачивание,
(2) удалить старый торрент у себя из клиента (старые серии удалять не надо),
(3) скачать новый торрент и запустить его у себя в клиенте вместо старого, при этом указать клиенту путь в старую папку куда и должно происходить скачивание новых серий.
Ваш клиент при этом должен произвести хеширование (проверку) старой папки (если не производит сам - помогите ему сделать это), и будет докачивать только те серии которых у вас ещё нет. Старые серии при этом не удаляются, а продолжают раздаваться!
Eсли вы уже удалили старые серии, то предотвратить повторную закачку старых серий можно, отжав галочку в соответсвующих местах при запуске нового торрента. По возможности, желательно не удалять старые серии как можно дольше чтобы релизёр не столько продолжал раздавать старые серии, а смог сконцентрироваться на новых.
ВНИМАНИЕ! ТОРРЕНТ ПЕРЕЗАЛИТ! ДОБАВЛЕНА 29-ая - 32-ая СЕРИИ!

Скриншоты

[Цитировать]



Показать сообщения:    

Текущее время: 07-Дек 13:36

Часовой пояс: UTC + 3


Вы не можете начинать темы
Вы не можете отвечать на сообщения
Вы не можете редактировать свои сообщения
Вы не можете удалять свои сообщения
Вы не можете голосовать в опросах
Вы не можете прикреплять файлы к сообщениям
Вы не можете скачивать файлы

!ВНИМАНИЕ!
Сайт не предоставляет электронные версии произведений, а занимается лишь коллекционированием и каталогизацией ссылок, присылаемых и публикуемых на форуме нашими читателями. Если вы являетесь правообладателем какого-либо представленного материала и не желаете, чтобы ссылка на него находилась в нашем каталоге, свяжитесь с нами, и мы незамедлительно удалим ее. Файлы для обмена на трекере предоставлены пользователями сайта, и администрация не несет ответственности за их содержание. Просьба не заливать файлы, защищенные авторскими правами, а также файлы нелегального содержания!