[ Сегодня идет свободное скачивание без начисления Download ]


Статистика раздачи
Нет
 
   
 
Top  
 
 

Как закалялся стайл

Год выпуска: 2013-2014
Производство: Украина НЛО ТВ
Жанр: комедия
Продолжительность: 24 x ~ 00:25:0
Режиссёр: Валентин Шпаков
Субтитры: нет
В ролях: Александр Ярмак, Евгений Янович, Анна Седокова, Алексей Горбунов, Алексей Маклаков
Описание: Безумные истории о том, на что некоторые готовы ради славы. Это история простых ребят из общежития, которые отчаянно любят девушек и рэп.
Начинающий репер Ярмак видит свое будущее и решает, во что бы то ни стало, воплотить его в реальность. Его ждут сцена, фанаты, записи альбомов Но это все потом. А сейчас общага, долги, сомнительные выступления и лучший друг продюсер-неудачник Гусь. Зато вместе их не перед чем не остановить!
Ссылка на предыдущие и альтернативные раздачи:
Семпл http://rusfolder.com/40473681
Качество: WEBRip
Формат: AVI
Видео кодек: XviD
Аудио кодек: AC3
Видео: MPEG-4 Visual at 1993 Кбит/сек,720 x 400 (1.800) at 25.000 fps. Бит/(Пиксели*Кадры) : 0.249
Аудио: AC-3 at 192 Кбит/сек,2 канала, 44,1 КГц

MediaInfo

Общее
Полное имя : D:\Ы!\Kak_zakalyalsa_stail\04.avi
Формат : AVI
Формат/Информация : Audio Video Interleave
Размер файла : 350 Мбайт
Продолжительность : 24 м.
Общий поток : 1993 Кбит/сек
Программа кодирования : VirtualDubMod 1.5.10.3 | www.virtualdub-fr.org || (build 2550/release)
Библиотека кодирования : VirtualDubMod build 2550/release
Видео
Идентификатор : 0
Формат : MPEG-4 Visual
Профиль формата : Advanced [email protected]
Параметр BVOP формата : 1
Параметр QPel формата : Нет
Параметр GMC формата : Без точки перехода
Параметр матрицы формата : Default (MPEG)
Идентификатор кодека : XVID
Идентификатор кодека/Подсказка : XviD
Продолжительность : 24 м.
Битрейт : 1792 Кбит/сек
Ширина : 720 пикселей
Высота : 400 пикселей
Соотношение сторон : 16:9
Частота кадров : 25,000 кадров/сек
Цветовое пространство : YUV
Субдискретизация насыщенности : 4:2:0
Битовая глубина : 8 бит
Тип развёртки : Прогрессивная
Метод сжатия : С потерями
Бит/(Пиксели*Кадры) : 0.249
Размер потока : 315 Мбайт (90%)
Библиотека кодирования : XviD 64
Аудио
Идентификатор : 1
Формат : AC-3
Формат/Информация : Audio Coding 3
Расширение режима : CM (complete main)
Параметр Endianness формата : Big
Идентификатор кодека : 2000
Продолжительность : 24 м.
Вид битрейта : Постоянный
Битрейт : 192 Кбит/сек
Каналы : 2 канала
Расположение каналов : Front: L R
Частота : 44,1 КГц
Битовая глубина : 16 бит
Метод сжатия : С потерями
Размер потока : 33,7 Мбайт (10%)
Выравнивание : Разделение по промежуткам
Продолжительность промежутка : 40 мс. (1,00 видеокадр)
Время предзагрузки промежутка : 500 мс.
Бит/(Пиксели*Кадры) : 0.251

Скриншоты


[Цитировать]



Показать сообщения:    

Текущее время: 05-Дек 11:26

Часовой пояс: UTC + 3


Вы не можете начинать темы
Вы не можете отвечать на сообщения
Вы не можете редактировать свои сообщения
Вы не можете удалять свои сообщения
Вы не можете голосовать в опросах
Вы не можете прикреплять файлы к сообщениям
Вы не можете скачивать файлы

!ВНИМАНИЕ!
Сайт не предоставляет электронные версии произведений, а занимается лишь коллекционированием и каталогизацией ссылок, присылаемых и публикуемых на форуме нашими читателями. Если вы являетесь правообладателем какого-либо представленного материала и не желаете, чтобы ссылка на него находилась в нашем каталоге, свяжитесь с нами, и мы незамедлительно удалим ее. Файлы для обмена на трекере предоставлены пользователями сайта, и администрация не несет ответственности за их содержание. Просьба не заливать файлы, защищенные авторскими правами, а также файлы нелегального содержания!