[ Сегодня идет свободное скачивание без начисления Download ]


Статистика раздачи
Нет
 
   
 
Top  
 
 
Морские дьяволы. Смерч-2
Год выпуска: 2013-2014
Производство: ООО "Гамма-продакшн"
Жанр: Криминал, приключения
Продолжительность: 00:45:00
Субтитры: нет
Режиссёр: Сергей Винокуров, Евгений Малков, Александра Бутько, Наталия Бучнева, Александр Картохин, Вадим Кауров, Сергей Раевский, Сергей Васильев
В ролях: Олег Чернов, Дарья Юргенс, Иван Паршин, Антон Гуляев, Владимир Ярош, Дарья Циберкина, Снежана Прудько, Игорь Григорьев, Виктор Смирнов, Олег Андреев, Семён Морозов, Игорь Лепихин, Михаил Черняк, Андрей Дежонов, Елена Радевич, Наталья Ткаченко, Валерий Дегтярь, Вадим Сквирский, Юрий Архангельский, Сергей Дьячков, Джулиано Ди Капуа, Евгений Сиротин, Олег Морозов, Вадим Парфёнов, Александр Маковский, Александр Ронис, Алексей Парасевич, Константин Клюквин, Юрий Елагин, Глеб Щур, Игорь Михайлов, Алексей Красноцветов, Александр Овчинников, Артем Шилов, Оксана Сырцова, Инна Ярмошук, Ирина Ворон, Александр Сергеев, Юрий Ковалёв, Андрей Соломыков, Вячеслав Аркунов, Александр Глебов, Жанна Куприянова, Дмитрий Белов, Александр Загребин
Описание: Продолжение проекта "Морские дьяволы. Смерч" - о бойцах спецподразделения "Смерч".
Все раздачи сериала:

Качество: SATRip
Формат: AVI
Видео кодек: XviD
Аудио кодек: AC3
Видео: 720x400 (1.80:1), 25 fps, XviD ~1550 kbps avg, 0.22 bit/pixel
Аудио: 48 kHz, AC3, 2 ch, ~192.00 kbps avg
Сторонней рекламы нет!

MI

ОбщееПолное имя                       : F:\Morskie.djavoly.smerch.2014.SATRip.Files-x.Generalfilm\Morskie.djavoly.smerch.34.2014.SATRip.Files-x.Generalfilm.aviФормат                           : AVIФормат/Информация                : Audio Video InterleaveРазмер файла                     : 550 МбайтПродолжительность                : 43 м.Общий поток                      : 1782 Кбит/секПрограмма кодирования            : VirtualDubModRus 1.5.10.2 (build 2542/release)Библиотека кодирования           : VirtualDubMod build 2542/release
ВидеоИдентификатор : 0Формат : MPEG-4 VisualПрофиль формата : Advanced [email protected] BVOP формата : 1Параметр QPel формата : НетПараметр GMC формата : Без точки переходаПараметр матрицы формата : ВыборочнаяИдентификатор кодека : XVIDИдентификатор кодека/Подсказка : XviDПродолжительность : 43 м.Битрейт : 1580 Кбит/секШирина : 720 пикс.Высота : 400 пикс.Соотношение сторон : 16:9Частота кадров : 25,000 кадр/секЦветовое пространство : YUVПодвыборка цветности : 4:2:0Битовая глубина : 8 битТип развёртки : ПрогрессивнаяМетод сжатия : С потерямиБит/(Пиксели*Кадры) : 0.219Размер потока : 488 Мбайт (89%)Библиотека кодирования : XviD 73
АудиоИдентификатор : 1Формат : AC-3Формат/Информация : Audio Coding 3Расширение режима : CM (complete main)Идентификатор кодека : 2000Продолжительность : 43 м.Вид битрейта : ПостоянныйБитрейт : 192 Кбит/секКаналы : 2 каналаРасположение каналов : Front: L RЧастота : 48,0 КГцБитовая глубина : 16 битМетод сжатия : С потерямиРазмер потока : 59,3 Мбайт (11%)Выравнивание : Разделение по промежуткамПродолжительность промежутка : 40 мс. (1,00 видеокадр)Время предзагрузки промежутка : 500 ms
Раздача группы:
Отдельное спасибо xoxol5511 за предоставление материала.

Внимание ! Раздача ведётся путём добавления новых серий

Внимание! Раздача ведётся путём добавления новых серий; при каждом добавлении создётся новый торрент. Чтобы начать докачку новой серии, пользователям необходимо сделать следующее:
(1) остановить скачивание,
(2) удалить старый торрент у себя из клиента (старые серии удалять не надо),
(3) скачать новый торрент и запустить его у себя в клиенте вместо старого, при этом указать клиенту путь в старую папку куда и должно происходить скачивание новых серий.
Ваш клиент при этом должен произвести хеширование (проверку) старой папки (если не производит сам - помогите ему сделать это), и будет докачивать только те серии которых у вас ещё нет. Старые серии при этом не удаляются, а продолжают раздаваться!
Eсли вы уже удалили старые серии, то предотвратить повторную закачку старых серий можно, отжав галочку в соответсвующих местах при запуске нового торрента. По возможности, желательно не удалять старые серии как можно дольше чтобы релизёр не столько продолжал раздавать старые серии, а смог сконцентрироваться на новых.
ВНИМАНИЕ! ТОРРЕНТ ПЕРЕЗАЛИТ! ДОБАВЛЕНА 63-ая - 64-ая СЕРИИ!

Скриншоты

[Цитировать]



Показать сообщения:    

Текущее время: 04-Дек 23:27

Часовой пояс: UTC + 3


Вы не можете начинать темы
Вы не можете отвечать на сообщения
Вы не можете редактировать свои сообщения
Вы не можете удалять свои сообщения
Вы не можете голосовать в опросах
Вы не можете прикреплять файлы к сообщениям
Вы не можете скачивать файлы

!ВНИМАНИЕ!
Сайт не предоставляет электронные версии произведений, а занимается лишь коллекционированием и каталогизацией ссылок, присылаемых и публикуемых на форуме нашими читателями. Если вы являетесь правообладателем какого-либо представленного материала и не желаете, чтобы ссылка на него находилась в нашем каталоге, свяжитесь с нами, и мы незамедлительно удалим ее. Файлы для обмена на трекере предоставлены пользователями сайта, и администрация не несет ответственности за их содержание. Просьба не заливать файлы, защищенные авторскими правами, а также файлы нелегального содержания!