[ Сегодня идет свободное скачивание без начисления Download ]


Статистика раздачи
Нет
 
   
 
Top  
 
 
Семейный очаг- -Год выпуска: 2010
Дистрибьютор: «Русское счастье Энтертеймент»
Производство: Intra Communications
Жанр: мелодрама
Продолжительность: 360 мин.
Субтитры: нет-Режиссёр: Ольга Перуновская-В ролях:
Дарья Повереннова, Ярослав Бойко, Ян Цапник, Иван Краско, Татьяна Самарина, Анастасия Рысева,
Полина Воробьёва, Владимир Крылов, Артур Ваха, Ольга Онищенко, Владимир Кочуров, Валерий Кухарешин,
Сергей Гамов, Елена Симонова, Максим Студеновский, Максим Гудков, Ольга Мирошникова, Сергей Перегудов, Михаил Батуев-Описание:
Сериал о жизни трех поколений современной российской семьи. События разворачиваются на фоне взаимоотношений журналистки Анастасии Давыдовой, которая ведет на радио ток-шоу «Семейный очаг», ее мужа-драматурга Андрея, их дочери-старшеклассницы Юли и пожилого отца, бывшего офицера Павла Ивановича. Брак Анастасии и Андрея на гране разрыва, они давно уже стали чужими друг другу. Спустя много лет у Анастасии вновь вспыхивает роман с ее первой любовью, военным врачом Дмитрием Шведовым, который лечит ее больного отца. Дмитрий близок к ее идеалу мужчины. Выясняется, что именно отец в свое время встал на пути их отношений. Андрей поглощен своей работой в театре, где его уважают и ценят. Ему льстит интерес к своей персоне, а особенно со стороны молоденькой актрисы Любы, с которой у него завязываются романтические отношения. Родители так заняты личной жизнью и работой, что обделяют своим вниманием дочь, которая остро нуждается в их любви и поддержке. Юля тяжело переживает по поводу углубляющегося разлада между родителями и требует от них сохранить семью. Сможет ли Анастасия пожертвовать своими любовными чувствами к Дмитрию ради сохранения семьи? Удастся ли героям сериала найти ответ на вопрос, что же важнее в жизни: любовь, семья, карьера, дружба, деньги? Возможно ли удачное сочетание всех этих составляющих?-Доп. информация:
При помощи DVD Remake Pro для удобства просмотра удалены заставки, предупреждения
Исходник поделен на 2 DVD5 по 4е серии на каждом диске
Навигация диска сохранена, нерабочие кнопки заблокированы
Общее сжатие - 0 %.-

Софт

DVD Remake Pro
--Возраст: 16+-релиз подготовлен RG для -Качество: 2 х DVD5 (Custom)
Формат: DVD-Video

Видео: PAL 16:9 (720x576) VBR Auto Letterboxed
Аудио: Russian (Dolby AC3, 2 ch) 96 Kbps
-

MediaInfo

General
Complete name : H:\Семейный очаг (1-8 серий из 8) 2 х DVD5\DVD 2\VIDEO_TS\VTS_01_3.VOB
Format : MPEG-PS
File size : 1 024 MiB
Duration : 3mn 25s
Overall bit rate mode : Variable
Overall bit rate : 41.7 Mbps
Video
ID : 224 (0xE0)
Format : MPEG Video
Format version : Version 2
Format profile : Main@Main
Format settings, BVOP : Yes
Format settings, Matrix : Custom
Format settings, GOP : Variable
Duration : 3mn 25s
Bit rate mode : Variable
Bit rate : 40.8 Mbps
Maximum bit rate : 8 100 Kbps
Width : 720 pixels
Height : 576 pixels
Display aspect ratio : 16:9
Frame rate : 25.000 fps
Standard : PAL
Color space : YUV
Chroma subsampling : 4:2:0
Bit depth : 8 bits
Scan type : Progressive
Compression mode : Lossy
Bits/(Pixel*Frame) : 3.934
Time code of first frame : 00:07:06:04
Time code source : Group of pictures header
Stream size : 1 001 MiB (98%)
Audio
ID : 189 (0xBD)-128 (0x80)
Format : AC-3
Format/Info : Audio Coding 3
Mode extension : CM (complete main)
Format settings, Endianness : Big
Muxing mode : DVD-Video
Duration : 3mn 25s
Bit rate mode : Constant
Bit rate : 96.0 Kbps
Channel(s) : 2 channels
Channel positions : Front: L R
Sampling rate : 48.0 KHz
Bit depth : 16 bits
Compression mode : Lossy
Delay relative to video : -672ms
Stream size : 2.36 MiB (0%)
Menu

-

DVDInfo DVD1

Title: DVD 1
Size: 3.72 Gb ( 3 898 056,00 KBytes ) - DVD-5
Enabled regions: 1, 2, 3, 4, 5, 6, 7, 8
VTS_01 :
Play Length: 00:45:14+00:45:18+00:45:14+00:45:18+00:00:03+00:00:03+00:00:03+00:00:03
Video: PAL 16:9 (720x576) VBR, Auto Letterboxed
Audio:
Russian (Dolby AC3, 2 ch)
* Menus Information *
VIDEO_TS Menu
Video:
PAL 16:9 (720x576) VBR
Auto Letterboxed
English Language Unit :
Title Menu
VTS_01 Menu
Video:
PAL 16:9 (720x576) VBR
Auto Letterboxed
Audio:
Not specified (Dolby AC3, 2 ch)
English Language Unit :
Root Menu
Audio #1: AC3, 2/0 (L,R) ch, 96 kbps, Delay 0 mSec

DVDInfo DVD2

Title: DVD 2
Size: 3.72 Gb ( 3 901 676,00 KBytes ) - DVD-5
Enabled regions: 1, 2, 3, 4, 5, 6, 7, 8
VTS_01 :
Play Length: 00:00:03+00:00:03+00:00:03+00:00:03+00:45:16+00:45:19+00:45:17+00:45:16
Video: PAL 16:9 (720x576) VBR, Auto Letterboxed
Audio:
Russian (Dolby AC3, 2 ch)
* Menus Information *
VIDEO_TS Menu
Video:
PAL 16:9 (720x576) VBR
Auto Letterboxed
English Language Unit :
Title Menu
VTS_01 Menu
Video:
PAL 16:9 (720x576) VBR
Auto Letterboxed
Audio:
Not specified (Dolby AC3, 2 ch)
English Language Unit :
Root Menu
Audio #1: AC3, 2/0 (L,R) ch, 96 kbps, Delay 0 mSec

-

Скриншоты меню


-

Скриншоты сериала DVD1



Скриншоты сериала DVD2




-

Ковры

-Раздаю до первых 5-ти скачавших, на раздачи не возвращаюсь...-

[Цитировать]



Показать сообщения:    

Текущее время: 10-Дек 21:39

Часовой пояс: UTC + 3


Вы не можете начинать темы
Вы не можете отвечать на сообщения
Вы не можете редактировать свои сообщения
Вы не можете удалять свои сообщения
Вы не можете голосовать в опросах
Вы не можете прикреплять файлы к сообщениям
Вы не можете скачивать файлы

!ВНИМАНИЕ!
Сайт не предоставляет электронные версии произведений, а занимается лишь коллекционированием и каталогизацией ссылок, присылаемых и публикуемых на форуме нашими читателями. Если вы являетесь правообладателем какого-либо представленного материала и не желаете, чтобы ссылка на него находилась в нашем каталоге, свяжитесь с нами, и мы незамедлительно удалим ее. Файлы для обмена на трекере предоставлены пользователями сайта, и администрация не несет ответственности за их содержание. Просьба не заливать файлы, защищенные авторскими правами, а также файлы нелегального содержания!