[ Сегодня идет свободное скачивание без начисления Download ]


Статистика раздачи
Нет
 
   
 
Top  
 
 
Ляля. Возвращение
Год выпуска: 2014
Производство: Канал Украина
Жанр: Мелодрама
Продолжительность: ~0:45:00 серия
Субтитры: Украинские (вшитые)
Режиссёр: Дмитрий Гольдман
В ролях: Александр Попов (IV), Ада Роговцева, Константин Данилюк, Надежда Костюк, Оксана Жданова, Дмитрий Лаленков, Оксана Сташенко, Фёдор Гуринец, Василий Мазур, Светлана Зельбет, Елена Борисова, Елена Ященко, Владимир Мельник, Павел Москаль, Елена Бондарева-Репина
Описание: 17-летней цыганке Ляле Рубиновой очень нужны деньги, поэтому она решает ночью ограбить дом местных богачей Свиридовых. В момент преступления ее застает сын хозяина дома Сергей. Но вместо того, чтобы вызвать полицию, молодой человек предлагает грабительнице… выйти за него замуж. И Ляля соглашается. Но состоится ли свадьба? Это история опасного любовного четырехугольника, из которого, после роковых событий, выбрались, выжили и обрели счастье только два истинно любящих человека.

Сага будет состоять из трех частей – "Дворняжка Ляля" (30 серий, 1-30), "Красотка Ляля" (30 серий, 31-60) и "Ляля. Возвращение" (35 серий, 61-95). В центре каждой истории — жизнь белокурой цыганки Ляли Рубиновой.

Все раздачи сериала:

Качество: DVB
Формат: MPEG -TS
Видео кодек: MPEG2
Аудио кодек: MPEG1
Видео: MPEG2 Video 768х576 @ 720x576 (4:3) 25.00fps ~4463 Kbps (0.43 bit/pixel)
Аудио: MPEG Audio 48000Hz 1 channels 192 Кбит/сек
Сторонней рекламы нет!

MediaInfo

ОбщееПолное имя                       : E:\Downloads\55\Ляля. Возвращение DVB\Ляля. Возвращение 01_серия_DVB_by_Серый1779.mpgФормат                           : MPEG-PSРазмер файла                     : 1,51 ГбайтПродолжительность                : 45 м.Общий поток                      : 4749 Кбит/сек
ВидеоИдентификатор : 224 (0xE0)Формат : MPEG VideoВерсия формата : Version 2Профиль формата : [email protected] BVOP формата : НетПараметр матрицы формата : По умолчаниюПродолжительность : 45 м.Вид битрейта : ПеременныйБитрейт : 4462 Кбит/секНоминальный битрейт : 15,0 Мбит/секШирина : 720 пикс.Высота : 576 пикс.Соотношение сторон : 4:3Частота кадров : 25,000 кадр/секСтандарт вещания : PALЦветовое пространство : YUVПодвыборка цветности : 4:2:0Битовая глубина : 8 битТип развёртки : ЧересстрочнаяПорядок развёртки : Верхнее поле первоеМетод сжатия : С потерямиБит/(Пиксели*Кадры) : 0.430Размер потока : 1,42 Гбайт (94%)
АудиоИдентификатор : 192 (0xC0)Формат : MPEG AudioВерсия формата : Version 1Профиль формата : Layer 2Продолжительность : 45 м.Вид битрейта : ПостоянныйБитрейт : 192 Кбит/секКаналы : 1 каналЧастота : 48,0 КГцМетод сжатия : С потерямиРазмер потока : 62,5 Мбайт (4%)
Запись и монтаж:

Внимание ! Раздача ведётся путём добавления новых серий

Внимание! Раздача ведётся путём добавления новых серий; при каждом добавлении создётся новый торрент. Чтобы начать докачку новой серии, пользователям необходимо сделать следующее:
(1) остановить скачивание,
(2) удалить старый торрент у себя из клиента (старые серии удалять не надо),
(3) скачать новый торрент и запустить его у себя в клиенте вместо старого, при этом указать клиенту путь в старую папку куда и должно происходить скачивание новых серий.
Ваш клиент при этом должен произвести хеширование (проверку) старой папки (если не производит сам - помогите ему сделать это), и будет докачивать только те серии которых у вас ещё нет. Старые серии при этом не удаляются, а продолжают раздаваться!
Eсли вы уже удалили старые серии, то предотвратить повторную закачку старых серий можно, отжав галочку в соответсвующих местах при запуске нового торрента. По возможности, желательно не удалять старые серии как можно дольше чтобы релизёр не столько продолжал раздавать старые серии, а смог сконцентрироваться на новых.
ВНИМАНИЕ! ТОРРЕНТ ПЕРЕЗАЛИТ! ДОБАВЛЕНА 35-ая СЕРИИ!

Скриншоты

[Цитировать]



Показать сообщения:    

Текущее время: 05-Дек 13:38

Часовой пояс: UTC + 3


Вы не можете начинать темы
Вы не можете отвечать на сообщения
Вы не можете редактировать свои сообщения
Вы не можете удалять свои сообщения
Вы не можете голосовать в опросах
Вы не можете прикреплять файлы к сообщениям
Вы не можете скачивать файлы

!ВНИМАНИЕ!
Сайт не предоставляет электронные версии произведений, а занимается лишь коллекционированием и каталогизацией ссылок, присылаемых и публикуемых на форуме нашими читателями. Если вы являетесь правообладателем какого-либо представленного материала и не желаете, чтобы ссылка на него находилась в нашем каталоге, свяжитесь с нами, и мы незамедлительно удалим ее. Файлы для обмена на трекере предоставлены пользователями сайта, и администрация не несет ответственности за их содержание. Просьба не заливать файлы, защищенные авторскими правами, а также файлы нелегального содержания!