[ Сегодня идет свободное скачивание без начисления Download ]


Статистика раздачи
Нет
 
   
 
Top  
 
 
Физрук, 2 сезон
Год выпуска: 2014
Производство: Good Story Media
Жанр: Комедия
Продолжительность: 00:23:00
Субтитры: нет
Режиссёр: Фёдор Стуков, Сергей Сенцов
В ролях: Полина Гренц, Дмитрий Нагиев, Анастасия Панина, Андрей Крыжний, Карина Мишулина, Максим Артамонов, Наталья Коренная, Владимир Жеребцов, Артур Сопельник, Ян Цапник, Елена Муравьёва, Роман Индык, Елена Коллегова
Описание: Сериал расскажет о начальнике охраны крупного бизнесмена, которого хозяин увольняет за устаревшие методы работы, приобретенные главным героем во время бурного бандитского прошлого. Новоиспеченный безработный и бывший начальник охраны устраивается физруком в школу, где учится дочь его бывшего босса, в надежде наладить с ним отношения и вернуться на прежнюю работу.
Все раздачи сериала:
Сэмпл: http://multi-up.com/1012880
Качество: DVB
Формат: MPEG
Видео кодек: MPEG2
Аудио кодек: MP2
Видео: MPEG-2 PS, 720 x 576, 25 fps, ~4000 kbps, 0.360 bpp
Аудио: MPEG Audio layer 2, 48 kHz, 2 ch, 192 kbps

MediaInfo

General
Complete name : J:\TV J\Физрук\Физрук - 2 сезон (2014)\S02 E01.mpg
Format : MPEG-PS
File size : 678 MiB
Duration : 22mn 33s
Overall bit rate mode : Variable
Overall bit rate : 4 201 Kbps
Writing library : (c) 1998-2010 Womble Multimedia, Inc. / MPEG Video Wizard DVD 5.0.0.114 (01/2010) / Nov 13 2010
Video
ID : 224 (0xE0)
Format : MPEG Video
Format version : Version 2
Format profile : Main@Main
Format settings, BVOP : Yes
Format settings, Matrix : Custom
Format settings, GOP : M=1, N=30
Duration : 22mn 33s
Bit rate mode : Variable
Bit rate : 3 733 Kbps
Maximum bit rate : 15.0 Mbps
Width : 720 pixels
Height : 576 pixels
Display aspect ratio : 4:3
Frame rate : 25.000 fps
Standard : PAL
Color space : YUV
Chroma subsampling : 4:2:0
Bit depth : 8 bits
Scan type : Progressive
Scan order : Top Field First
Compression mode : Lossy
Bits/(Pixel*Frame) : 0.360
Stream size : 603 MiB (89%)
Writing library : (c) 1998-2010 Womble Multimedia, Inc. / MPEG Video Wizard DVD 5.0.0.114 (01/2010) / Nov 13 2010
Audio #1
ID : 192 (0xC0)
Format : MPEG Audio
Format version : Version 1
Format profile : Layer 2
Mode : Dual mono
Mode extension : MS Stereo
Duration : 22mn 33s
Bit rate mode : Constant
Bit rate : 192 Kbps
Channel(s) : 2 channels
Sampling rate : 48.0 KHz
Compression mode : Lossy
Stream size : 31.0 MiB (5%)
Audio #2
ID : 193 (0xC1)
Format : MPEG Audio
Format version : Version 1
Format profile : Layer 2
Duration : 22mn 33s
Bit rate mode : Constant
Bit rate : 192 Kbps
Channel(s) : 2 channels
Sampling rate : 48.0 KHz
Compression mode : Lossy
Stream size : 31.0 MiB (5%)
-За предоставленные исходники, особая благодарность пиву и рыбе
2014.12.16! Добавлены серии 16-19

[Цитировать]



Показать сообщения:    

Текущее время: 08-Дек 10:47

Часовой пояс: UTC + 3


Вы не можете начинать темы
Вы не можете отвечать на сообщения
Вы не можете редактировать свои сообщения
Вы не можете удалять свои сообщения
Вы не можете голосовать в опросах
Вы не можете прикреплять файлы к сообщениям
Вы не можете скачивать файлы

!ВНИМАНИЕ!
Сайт не предоставляет электронные версии произведений, а занимается лишь коллекционированием и каталогизацией ссылок, присылаемых и публикуемых на форуме нашими читателями. Если вы являетесь правообладателем какого-либо представленного материала и не желаете, чтобы ссылка на него находилась в нашем каталоге, свяжитесь с нами, и мы незамедлительно удалим ее. Файлы для обмена на трекере предоставлены пользователями сайта, и администрация не несет ответственности за их содержание. Просьба не заливать файлы, защищенные авторскими правами, а также файлы нелегального содержания!