[ Сегодня идет свободное скачивание без начисления Download ]


Статистика раздачи
Нет
 
   
 
Top  
 
 
Чужой
Год выпуска: 2014
Производство: © Форвард-Фильм, 2013 год
Жанр: боевик, детектив, криминальный фильм
Продолжительность: 00:44:00
Субтитры: Нет
Режиссёр: Георгий Даниелянц, Вадим Саетгалиев, Петр Забелин
В ролях: Сергей Горобченко, Дмитрий Паламарчук, Кира Кауфман, Сергей Кошонин, Сергей Колос, Денис Горин, Наталья Андреева, Валентин Захаров (II), Валерия Сухачева, Мария Зимина (II), Анна Донченко, Ирина Гершт, Мария Шустрова, Александр Михайлов-Уральский, Владислав Петрушин, Роман Притула, Юрий Ковалёв, Кристина Оленникова, Мария Русских, Андрей Вергелис, Дмитрий Кузеняткин, Николай Колосов, Эрнест Тимерханов, Анна Енжаева
Описание: Главный герой сериала, Михаил Аристов, после развода принимает решение вернуться на родину из Австралии, где работал рейнджером в национальном парке. Он абсолютно не представляет себе реалий жизни в современной России. Он привык к обществу равных перед законом людей, к полиции, которая это равенство защищает, к наказанию преступников, невзирая на персоналии. В результате случайного уличного конфликта на Аристова возбуждают уголовное дело. Единственный, кто может ему помочь – начальник уголовного розыска одного из районов полковник Водяной, отчим старого школьного друга. В качестве ответной услуги, Водяной предлагает Аристову поработать в качестве его агента, став водителем салона элитного «эскорта». Он должен среди девушек, работающих в салоне, вычислить проститутку, связанную с преступниками, совершившим налет на особняк олигарха Акулина. Аристов и не представляет, к каким глобальным изменениям в его жизни, к каким драматическим событиям приведет его эта просьба.
Содержания:
Фильм первый: Марсианин (1-4 серии)
Фильм второй: Кенгуру (5-8 серии)
Фильм третий: Даваз (9-12 серии)
Фильм четвертый: Арестант (13-16 серии)
Фильм пятый: Нелегал (17-20 серии)
Фильм шестой: Мертвец (21-24 серии)
-
Доп. информация: Реклама отсутствует!
-
Релиз группы::
-
Все раздачи сериала:
Сэмпл: https://cloud.mail.ru/public/b6392f744fab/%D0%A7%D1...Rip.by.simka.avi
Качество: SATRip
Формат: AVI
Видео кодек: XviD
Аудио кодек: MP3
Видео: 704x400, 25 fps, XviD, ~1400 kbps, 0.229 bit/pixel
Аудио: 48 kHz, MPEG Layer 3, 2 ch, 192 kbps

MI

Общее
Полное имя : U:\Сериалы (2014)_2\Чужой (2014)\Чужой.(01.seriya).2014.XviD.SATRip.by.simka.avi
Формат : AVI
Формат/Информация : Audio Video Interleave
Размер файла : 488 Мбайт
Продолжительность : 42 м.
Общий поток : 1601 Кбит/сек
Программа кодирования : VirtualDubModRus 1.5.10.2 (build 2542/release)
Библиотека кодирования : VirtualDubMod build 2542/release
Видео
Идентификатор : 0
Формат : MPEG-4 Visual
Профиль формата : Advanced Simple@L5
Параметр BVOP формата : 1
Параметр QPel формата : Нет
Параметр GMC формата : Без точки перехода
Параметр матрицы формата : Default (MPEG)
Идентификатор кодека : XVID
Идентификатор кодека/Подсказка : XviD
Продолжительность : 42 м.
Битрейт : 1400 Кбит/сек
Ширина : 704 пикселя
Высота : 400 пикселей
Соотношение сторон : 16:9
Частота кадров : 25,000 кадров/сек
Цветовое пространство : YUV
Субдискретизация насыщенности : 4:2:0
Битовая глубина : 8 бит
Тип развёртки : Прогрессивная
Метод сжатия : С потерями
Бит/(Пиксели*Кадры) : 0.199
Размер потока : 427 Мбайт (87%)
Библиотека кодирования : XviD 1.2.1 (UTC 2008-12-04)
Аудио
Идентификатор : 1
Формат : MPEG Audio
Версия формата : Version 1
Профиль формата : Layer 3
Режим : Joint stereo
Расширение режима : MS Stereo
Идентификатор кодека : 55
Идентификатор кодека/Подсказка : MP3
Продолжительность : 42 м.
Вид битрейта : Постоянный
Битрейт : 192 Кбит/сек
Каналы : 2 канала
Частота : 48,0 КГц
Метод сжатия : С потерями
Размер потока : 58,6 Мбайт (12%)
Выравнивание : Соединение по промежуткам
Продолжительность промежутка : 40 мс. (1,00 видеокадр)
Время предзагрузки промежутка : 504 мс.
Библиотека кодирования : LAME3.99r
Настройки программы : -m j -V 4 -q 2 -lowpass 18.6 -b 192
-------------

Внимание! Раздача ведётся путём добавления новых выпусков

При каждом добавлении создаётся новый торрент. Чтобы начать докачку нового выпуска, пользователям необходимо сделать следующее:
? остановить скачивание;
? удалить старый торрент у себя из клиента (старые выпуски удалять не надо);
? скачать новый торрент и запустить его у себя в клиенте вместо старого, при этом указать клиенту путь в старую папку куда и должно происходить скачивание новых выпусков;
? ваш клиент при запуске должен произвести хеширование (проверку) старой папки (если не производит сам - помогите ему сделать это), и будет докачивать только те выпуски, которых у вас ещё нет. Старые выпуски при этом не удаляются, а продолжают раздаваться!
? Eсли вы уже удалили старые выпуски, то предотвратить повторную закачку старых выпусков можно, отжав галочку в соответсвующих местах при запуске нового торрента.
http://5.firepic.org/5/images/2014-11/09/qt9b1altrhxp.gif http://4.firepic.org/4/images/2014-11/10/umkudqgatnyx.jpg
Добавлена 23-я и 24-я серия!

[Цитировать]



Показать сообщения:    

Текущее время: 10-Дек 23:28

Часовой пояс: UTC + 3


Вы не можете начинать темы
Вы не можете отвечать на сообщения
Вы не можете редактировать свои сообщения
Вы не можете удалять свои сообщения
Вы не можете голосовать в опросах
Вы не можете прикреплять файлы к сообщениям
Вы не можете скачивать файлы

!ВНИМАНИЕ!
Сайт не предоставляет электронные версии произведений, а занимается лишь коллекционированием и каталогизацией ссылок, присылаемых и публикуемых на форуме нашими читателями. Если вы являетесь правообладателем какого-либо представленного материала и не желаете, чтобы ссылка на него находилась в нашем каталоге, свяжитесь с нами, и мы незамедлительно удалим ее. Файлы для обмена на трекере предоставлены пользователями сайта, и администрация не несет ответственности за их содержание. Просьба не заливать файлы, защищенные авторскими правами, а также файлы нелегального содержания!