[ Сегодня идет свободное скачивание без начисления Download ]


Статистика раздачи
Нет
 
   
 
Top  
 
 
Верни мою любовь / Mostoen Sarang (Bad Love), Rus
Год выпуска: 2014
Производство: кинокомпания "ACCELtime production" по лицензии KBS2 media (Cluer Love / Bad Love), Корея 2007 год
Жанр: Мелодрама
Продолжительность: 00:50:00
Субтитры: Нет
Режиссёр: Евгений Баранов
В ролях: Олеся Фаттахова, Станислав Бондаренко, Дмитрий Пчела, Настасья Самбурская, Владимир Литвинов, Наталия Васько, Любава Грешнова, Анатолий Лобоцкий, Борис Каморзин, Юрий Лахин, Елена Борисова, Алёна Яковлева, Оксана Дорохина, Михаил Сафронов (II), Александр Хващинский, Светлана Зельбет
Описание: Юная и немного наивная виолончелистка Вера почти одновременно знакомится с двумя совершенно разными мужчинами: художником Владом и бизнесменом Антоном. Добродушный разгильдяй Влад - сын и наследник олигарха Сергея Орлова, на которого Влад с детства зол из-за того, что тот бросил его мать. Но, главное, Влад винит отца в самоубийстве своей любимой девушки Алены. Амбициозный и расчетливый Антон - зять того же Орлова, работает в компании тестя и надеется возглавить ее.
Но именно Антону Вера отдает свою первую любовь, даже не подозревая, что он женат. Вера ждет, когда Антон сделает ей предложение, но Антон признается Вере, что у него есть супруга. Вера потрясена, но она так безумно влюблена в Антона, что соглашается быть просто его любовницей.
Психически неуравновешенная жена Антона - Илона, узнав о романе мужа, избивает Веру так сильно, что калечит ей руку, из-за чего Вера больше никогда не сможет играть на виолончели. Вскоре Вера узнает, что беременна от Антона, который бросает её.
Найдет ли Вера свою дочь Катю, которую считает умершей при рождении, сможет ли Антон в жестком противостоянии с Владом победить и вернуть Веру, будет ли наказана жестокая Илона?..
-
Анонс 1: https://yadi.sk/d/IPVKMffydCjhS Анонс 2: https://yadi.sk/d/lF0Ucw72dKCEq

-
Доп. информация: Реклама отсутствует!
-
Релиз группы::
-
Все раздачи сериала:
Сэмпл: https://cloud.mail.ru/public/3d59c1387b80/%D0%92%D0...Rip.by.simka.avi
Качество: SATRip
Формат: AVI
Видео кодек: XviD
Аудио кодек: MP3
Видео: 704x368, 25 fps, XviD, ~1400 kbps, 0.229 bit/pixel
Аудио: 48 kHz, MPEG Layer 3, 2 ch, 192 kbps

MI

Общее
Полное имя : U:\Сериалы (2014)_2\Верни мою любовь (2014) - Bad Love, Rus\Верни мою любовь.(01.seriya).2014.XviD.SATRip.by.simka.avi
Формат : AVI
Формат/Информация : Audio Video Interleave
Размер файла : 567 Мбайт
Продолжительность : 49 м.
Общий поток : 1601 Кбит/сек
Программа кодирования : VirtualDubModRus 1.5.10.2 (build 2542/release)
Библиотека кодирования : VirtualDubMod build 2542/release
Видео
Идентификатор : 0
Формат : MPEG-4 Visual
Профиль формата : Advanced Simple@L5
Параметр BVOP формата : 1
Параметр QPel формата : Нет
Параметр GMC формата : Без точки перехода
Параметр матрицы формата : Default (MPEG)
Идентификатор кодека : XVID
Идентификатор кодека/Подсказка : XviD
Продолжительность : 49 м.
Битрейт : 1400 Кбит/сек
Ширина : 704 пикселя
Высота : 368 пикселей
Соотношение сторон : 1,913
Частота кадров : 25,000 кадров/сек
Цветовое пространство : YUV
Субдискретизация насыщенности : 4:2:0
Битовая глубина : 8 бит
Тип развёртки : Прогрессивная
Метод сжатия : С потерями
Бит/(Пиксели*Кадры) : 0.216
Размер потока : 496 Мбайт (87%)
Библиотека кодирования : XviD 1.2.1 (UTC 2008-12-04)
Аудио
Идентификатор : 1
Формат : MPEG Audio
Версия формата : Version 1
Профиль формата : Layer 3
Режим : Joint stereo
Идентификатор кодека : 55
Идентификатор кодека/Подсказка : MP3
Продолжительность : 49 м.
Вид битрейта : Постоянный
Битрейт : 192 Кбит/сек
Каналы : 2 канала
Частота : 48,0 КГц
Метод сжатия : С потерями
Размер потока : 68,0 Мбайт (12%)
Выравнивание : Соединение по промежуткам
Продолжительность промежутка : 40 мс. (1,00 видеокадр)
Время предзагрузки промежутка : 504 мс.
Библиотека кодирования : LAME3.99r
Настройки программы : -m j -V 4 -q 2 -lowpass 18.6 -b 192
-------------

Внимание! Раздача ведётся путём добавления новых выпусков

При каждом добавлении создаётся новый торрент. Чтобы начать докачку нового выпуска, пользователям необходимо сделать следующее:
? остановить скачивание;
? удалить старый торрент у себя из клиента (старые выпуски удалять не надо);
? скачать новый торрент и запустить его у себя в клиенте вместо старого, при этом указать клиенту путь в старую папку куда и должно происходить скачивание новых выпусков;
? ваш клиент при запуске должен произвести хеширование (проверку) старой папки (если не производит сам - помогите ему сделать это), и будет докачивать только те выпуски, которых у вас ещё нет. Старые выпуски при этом не удаляются, а продолжают раздаваться!,
? Eсли вы уже удалили старые выпуски, то предотвратить повторную закачку старых выпусков можно, отжав галочку в соответсвующих местах при запуске нового торрента.
Добавлена 24-я серия! Финал!

[Цитировать]



Показать сообщения:    

Текущее время: 09-Дек 10:46

Часовой пояс: UTC + 3


Вы не можете начинать темы
Вы не можете отвечать на сообщения
Вы не можете редактировать свои сообщения
Вы не можете удалять свои сообщения
Вы не можете голосовать в опросах
Вы не можете прикреплять файлы к сообщениям
Вы не можете скачивать файлы

!ВНИМАНИЕ!
Сайт не предоставляет электронные версии произведений, а занимается лишь коллекционированием и каталогизацией ссылок, присылаемых и публикуемых на форуме нашими читателями. Если вы являетесь правообладателем какого-либо представленного материала и не желаете, чтобы ссылка на него находилась в нашем каталоге, свяжитесь с нами, и мы незамедлительно удалим ее. Файлы для обмена на трекере предоставлены пользователями сайта, и администрация не несет ответственности за их содержание. Просьба не заливать файлы, защищенные авторскими правами, а также файлы нелегального содержания!