[ Сегодня идет свободное скачивание без начисления Download ]


Статистика раздачи
Нет
 
   
 
Top  
 
 
Минус один
Год выпуска: 2014
Производство: Россия, Star Media
Жанр: Мелодрама
Продолжительность: ~00:45:00
Субтитры: нет
Режиссёр: Игорь Ройзман
В ролях: Иван Стебунов, Татьяна Казючиц, Артём Григорьев, Ольга Дибцева, Мария Болонкина, Афина Кондрашова
Описание: Лена и Вася счастливо женаты, у них двое детей. Но бытовой конфликт приводит к череде событий, заканчивающихся грандиозной ссорой супругов. В пылу скандала они заявляют, что прекрасно проживут друг без друга. И получают такую возможность в самом буквальном смысле: теперь Лена живет в мире, в котором нет Васи, а Вася — в мире, в котором нет Лены. Все остальное остается неизменным: и у Лены и у Васи есть дети, соседи и родственники — по комплекту для каждого из супругов. Лена и Вася находят способ связи — это один из телевизионных каналов, по которому они могут видеть друг друга. Окрыленные свободой, супруги начинают жить отдельно: Вася нянчит детей, Лена ищет работу. У обоих завязываются свои романтические отношения. Но очень скоро они понимают, что никто не может заменить им друг друга. Теперь Лене и Васе предстоит найти способ воссоединения… Если это вообще возможно.
Все раздачи сериала:

Качество: WEBRip 1080p
Формат: MKV
Видео кодек: H.264
Аудио кодек: AC-3
Видео: x264, 1920 х 1080 (16:9), 25,000 кадр/сек, ~ 2447 kbps, 0.039 bit/pixel
Аудио: AC-3, 48000 Hz, ~192 Kbps, 2 канала
Сторонней рекламы нет!

MediaInfo

ОбщееУникальный идентификатор                 : 178882054285260716791680101521780357486 (0x86936E345719E8AA956815633A67B96E)Полное имя                               : F:\Фильмы торренты\Minus.odin.2014.WEB-DL.(1080p).MediaClub\Minus.odin.(01.seriya.iz.04).2014.WEB-DL.(1080p).MediaClub.mkvФормат                                   : MatroskaВерсия формата                           : Version 2Размер файла                             : 867 МбайтПродолжительность                        : 44 м.Общий поток                              : 2693 Кбит/секНазвание фильма                          : Minus.odin.(01.seriya.iz.04).2014.WEB-DL.(1080p).MediaClubДата кодирования                         : UTC 2014-12-07 10:37:57Программа кодирования                    : mkvmerge v5.8.0 ('No Sleep / Pillow') built on Sep  2 2012 15:37:04Библиотека кодирования                   : libebml v1.2.3 + libmatroska v1.3.0ВидеоИдентификатор                            : 1Формат                                   : AVCФормат/Информация                        : Advanced Video CodecПрофиль формата                          : High@L4.0Параметр CABAC формата                   : ДаПараметр ReFrames формата                : 3 кадраИдентификатор кодека                     : V_MPEG4/ISO/AVCПродолжительность                        : 44 м.Битрейт                                  : 2447 Кбит/секШирина                                   : 1920 пикселейВысота                                   : 1080 пикселейСоотношение сторон                       : 16:9Режим частоты кадров                     : ПостоянныйЧастота кадров                           : 29,970 кадров/секЦветовое пространство                    : YUVСубдискретизация насыщенности            : 4:2:0Битовая глубина                          : 8 битТип развёртки                            : ПрогрессивнаяБит/(Пиксели*Кадры)                      : 0.039Размер потока                            : 788 Мбайт (91%)Default                                  : ДаForced                                   : ДаАудиоИдентификатор                            : 2Формат                                   : AC-3Формат/Информация                        : Audio Coding 3Расширение режима                        : CM (complete main)Параметр Endianness формата              : BigИдентификатор кодека                     : A_AC3Продолжительность                        : 44 м.Вид битрейта                             : ПостоянныйБитрейт                                  : 192 Кбит/секКаналы                                   : 2 каналаРасположение каналов                     : Front: L RЧастота                                  : 48,0 КГцБитовая глубина                          : 16 битМетод сжатия                             : С потерямиРазмер потока                            : 61,8 Мбайт (7%)Язык                                     : RussianDefault                                  : ДаForced                                   : Да
Раздача группы:
Отдельное спасибо nikolspup за предоставление материала.

Внимание ! Раздача ведётся путём добавления новых серий

Внимание! Раздача ведётся путём добавления новых серий; при каждом добавлении создётся новый торрент. Чтобы начать докачку новой серии, пользователям необходимо сделать следующее:
(1) остановить скачивание,
(2) удалить старый торрент у себя из клиента (старые серии удалять не надо),
(3) скачать новый торрент и запустить его у себя в клиенте вместо старого, при этом указать клиенту путь в старую папку куда и должно происходить скачивание новых серий.
Ваш клиент при этом должен произвести хеширование (проверку) старой папки (если не производит сам - помогите ему сделать это), и будет докачивать только те серии которых у вас ещё нет. Старые серии при этом не удаляются, а продолжают раздаваться!
Eсли вы уже удалили старые серии, то предотвратить повторную закачку старых серий можно, отжав галочку в соответсвующих местах при запуске нового торрента. По возможности, желательно не удалять старые серии как можно дольше чтобы релизёр не столько продолжал раздавать старые серии, а смог сконцентрироваться на новых.
ВНИМАНИЕ! ТОРРЕНТ ПЕРЕЗАЛИТ! ДОБАВЛЕНА 4-ая СЕРИИ!

Скриншоты

[Цитировать]



Показать сообщения:    

Текущее время: 09-Дек 05:01

Часовой пояс: UTC + 3


Вы не можете начинать темы
Вы не можете отвечать на сообщения
Вы не можете редактировать свои сообщения
Вы не можете удалять свои сообщения
Вы не можете голосовать в опросах
Вы не можете прикреплять файлы к сообщениям
Вы не можете скачивать файлы

!ВНИМАНИЕ!
Сайт не предоставляет электронные версии произведений, а занимается лишь коллекционированием и каталогизацией ссылок, присылаемых и публикуемых на форуме нашими читателями. Если вы являетесь правообладателем какого-либо представленного материала и не желаете, чтобы ссылка на него находилась в нашем каталоге, свяжитесь с нами, и мы незамедлительно удалим ее. Файлы для обмена на трекере предоставлены пользователями сайта, и администрация не несет ответственности за их содержание. Просьба не заливать файлы, защищенные авторскими правами, а также файлы нелегального содержания!