[ Сегодня идет свободное скачивание без начисления Download ]


Статистика раздачи
Нет
 
   
 
Top  
 
 
Минус один
Год выпуска: 2014
Производство: Россия, Star Media
Жанр: Мелодрама
Продолжительность: ~00:45:00
Субтитры: нет
Режиссёр: Игорь Ройзман
В ролях: Иван Стебунов, Татьяна Казючиц, Артём Григорьев, Ольга Дибцева, Мария Болонкина, Афина Кондрашова
Описание: Лена и Вася счастливо женаты, у них двое детей. Но бытовой конфликт приводит к череде событий, заканчивающихся грандиозной ссорой супругов. В пылу скандала они заявляют, что прекрасно проживут друг без друга. И получают такую возможность в самом буквальном смысле: теперь Лена живет в мире, в котором нет Васи, а Вася — в мире, в котором нет Лены. Все остальное остается неизменным: и у Лены и у Васи есть дети, соседи и родственники — по комплекту для каждого из супругов. Лена и Вася находят способ связи — это один из телевизионных каналов, по которому они могут видеть друг друга. Окрыленные свободой, супруги начинают жить отдельно: Вася нянчит детей, Лена ищет работу. У обоих завязываются свои романтические отношения. Но очень скоро они понимают, что никто не может заменить им друг друга. Теперь Лене и Васе предстоит найти способ воссоединения… Если это вообще возможно.
Все раздачи сериала:

Качество: WEBRip 720p
Формат: MKV
Видео кодек: H.264
Аудио кодек: AC-3
Видео: MPEG4 Video (H264) 1280x718, ~ 3866 kbps, 25.00fps 0.14 bit/pixel
Аудио: AC-3, 2 канала, 44,1 КГц, ~192 kbps, VBR
Сторонней рекламы нет!

MediaInfo

ОбщееУникальный идентификатор         : 213037161744123490841142350666994219581 (0xA0457704259E80B610F0D45D4C7EFA3D)Полное имя                       : F:\Minus.odin.2014.WEB-DL.(720p).ExKinoRay\Minus.odin.(1.serija.iz.4).2014.WEB-DL.(720p).ExKinoRay.mkvФормат                           : MatroskaРазмер файла                     : 1,28 ГбайтПродолжительность                : 44 м.Общий поток                      : 4074 Кбит/секПрограмма кодирования            : Lavf54.63.104Библиотека кодирования           : Lavf54.63.104ВидеоИдентификатор                    : 1Формат                           : AVCФормат/Информация                : Advanced Video CodecПрофиль формата                  : [email protected] CABAC формата           : ДаПараметр ReFrames формата        : 1 кадрИдентификатор кодека             : V_MPEG4/ISO/AVCПродолжительность                : 44 м.Битрейт                          : 3866 Кбит/секШирина                           : 1280 пикс.Высота                           : 720 пикс.Соотношение сторон               : 16:9Режим частоты кадров             : ПеременныйЧастота кадров                   : 29,970 кадр/секЦветовое пространство            : YUVПодвыборка цветности             : 4:2:0Битовая глубина                  : 8 битТип развёртки                    : ПрогрессивнаяБит/(Пиксели*Кадры)              : 0.140Размер потока                    : 1,19 Гбайт (93%)Библиотека кодирования           : x264 core 129Настройки программы              : cabac=1 / ref=1 / deblock=1:0:0 / analyse=0x1:0x131 / me=dia / subme=2 / psy=1 / psy_rd=1.00:0.00 / mixed_ref=0 / me_range=16 / chroma_me=1 / trellis=0 / 8x8dct=0 / cqm=0 / deadzone=21,11 / fast_pskip=1 / chroma_qp_offset=0 / threads=4 / lookahead_threads=1 / sliced_threads=0 / nr=0 / decimate=1 / interlaced=0 / bluray_compat=0 / constrained_intra=0 / bframes=0 / weightp=2 / keyint=250 / keyint_min=25 / scenecut=40 / intra_refresh=0 / rc_lookahead=40 / rc=abr / mbtree=1 / bitrate=3866 / ratetol=1.0 / qcomp=0.60 / qpmin=10 / qpmax=51 / qpstep=4 / ip_ratio=1.41 / aq=1:1.00Язык                             : EnglishАудиоИдентификатор                    : 2Формат                           : AC-3Формат/Информация                : Audio Coding 3Расширение режима                : CM (complete main)Идентификатор кодека             : A_AC3Продолжительность                : 44 м.Вид битрейта                     : ПостоянныйБитрейт                          : 192 Кбит/секКаналы                           : 2 каналаРасположение каналов             : Front: L RЧастота                          : 44,1 КГцБитовая глубина                  : 16 битМетод сжатия                     : С потерямиРазмер потока                    : 61,8 Мбайт (5%)Язык                             : English
Раздача группы:
Отдельное спасибо zrjhmvyt за предоставление материала.

Внимание ! Раздача ведётся путём добавления новых серий

Внимание! Раздача ведётся путём добавления новых серий; при каждом добавлении создётся новый торрент. Чтобы начать докачку новой серии, пользователям необходимо сделать следующее:
(1) остановить скачивание,
(2) удалить старый торрент у себя из клиента (старые серии удалять не надо),
(3) скачать новый торрент и запустить его у себя в клиенте вместо старого, при этом указать клиенту путь в старую папку куда и должно происходить скачивание новых серий.
Ваш клиент при этом должен произвести хеширование (проверку) старой папки (если не производит сам - помогите ему сделать это), и будет докачивать только те серии которых у вас ещё нет. Старые серии при этом не удаляются, а продолжают раздаваться!
Eсли вы уже удалили старые серии, то предотвратить повторную закачку старых серий можно, отжав галочку в соответсвующих местах при запуске нового торрента. По возможности, желательно не удалять старые серии как можно дольше чтобы релизёр не столько продолжал раздавать старые серии, а смог сконцентрироваться на новых.
ВНИМАНИЕ! ТОРРЕНТ ПЕРЕЗАЛИТ! ДОБАВЛЕНА 4-ая СЕРИИ!

Скриншоты

[Цитировать]



Показать сообщения:    

Текущее время: 05-Дек 03:32

Часовой пояс: UTC + 3


Вы не можете начинать темы
Вы не можете отвечать на сообщения
Вы не можете редактировать свои сообщения
Вы не можете удалять свои сообщения
Вы не можете голосовать в опросах
Вы не можете прикреплять файлы к сообщениям
Вы не можете скачивать файлы

!ВНИМАНИЕ!
Сайт не предоставляет электронные версии произведений, а занимается лишь коллекционированием и каталогизацией ссылок, присылаемых и публикуемых на форуме нашими читателями. Если вы являетесь правообладателем какого-либо представленного материала и не желаете, чтобы ссылка на него находилась в нашем каталоге, свяжитесь с нами, и мы незамедлительно удалим ее. Файлы для обмена на трекере предоставлены пользователями сайта, и администрация не несет ответственности за их содержание. Просьба не заливать файлы, защищенные авторскими правами, а также файлы нелегального содержания!