[ Сегодня идет свободное скачивание без начисления Download ]


Статистика раздачи
Нет
 
   
 
Top  
 
 
Верни мою любовь
Год выпуска: 2014
Производство: ACCELtime production
Жанр: Мелодрама
Продолжительность: ~00:56:00
Субтитры: украинские (вшитые)
Режиссёр: Евгений Баранов (II)
В ролях: Олеся Фаттахова, Станислав Бондаренко, Дмитрий Пчела, Настасья Самбурская, Владимир Литвинов, Наталия Васько, Любава Грешнова, Анатолий Лобоцкий, Борис Каморзин, Юрий Лахин, Елена Борисова, Алёна Яковлева, Оксана Дорохина, Михаил Сафронов (II), Александр Хващинский, Светлана Зельбет, Мария Тарасова (II)
Описание: Юная и немного наивная виолончелистка Вера почти одновременно знакомится с двумя совершенно разными мужчинами: художником Владом и бизнесменом Антоном. Добродушный разгильдяй Влад - сын и наследник олигарха Сергея Орлова, на которого Влад с детства зол из-за того, что тот бросил его мать. Но, главное, Влад винит отца в самоубийстве своей любимой девушки Алены. Амбициозный и расчетливый Антон - зять того же Орлова, работает в компании тестя и надеется возглавить ее.
Но именно Антону Вера отдает свою первую любовь, даже не подозревая, что он женат. Вера ждет, когда Антон сделает ей предложение, но Антон признается Вере, что у него есть супруга. Вера потрясена, но она так безумно влюблена в Антона, что соглашается быть просто его любовницей.
Психически неуравновешенная жена Антона - Илона, узнав о романе мужа, избивает Веру так сильно, что калечит ей руку, из-за чего Вера больше никогда не сможет играть на виолончели. Вскоре Вера узнает, что беременна от Антона, который бросает её.
Найдет ли Вера свою дочь Катю, которую считает умершей при рождении, сможет ли Антон в жестком противостоянии с Владом победить и вернуть Веру, будет ли наказана жестокая Илона?..
Все раздачи сериала:

Качество: DVB
Формат: TS
Видео кодек: MPEG2
Аудио кодек: MPEG1
Видео: MPEG2 Video 768х576 @ 704x576 (4:3) 25.00fps ~2372 Kbps (0.234 bit/pixel)
Аудио: MPEG Audio 48000Hz 2 channels 192 Кбит/сек
Сторонней рекламы нет!

MediaInfo

ОбщееПолное имя                       : F:\Верни мою любовь DVB\Верни мою любовь 01_серия_DVB_by_Серый1779.mpgФормат                           : MPEG-PSРазмер файла                     : 1,03 ГбайтПродолжительность                : 56 м.Общий поток                      : 2616 Кбит/сек
ВидеоИдентификатор : 224 (0xE0)Формат : MPEG VideoВерсия формата : Version 2Профиль формата : Main@MainПараметр BVOP формата : ДаПараметр матрицы формата : По умолчаниюПараметры GOP формата : M=3, N=30Продолжительность : 56 м.Вид битрейта : ПеременныйБитрейт : 2372 Кбит/секНоминальный битрейт : 15,0 Мбит/секШирина : 704 пикс.Высота : 576 пикс.Соотношение сторон : 4:3Частота кадров : 25,000 кадр/секСтандарт вещания : PALЦветовое пространство : YUVПодвыборка цветности : 4:2:0Битовая глубина : 8 битТип развёртки : ЧересстрочнаяПорядок развёртки : Верхнее поле первоеМетод сжатия : С потерямиБит/(Пиксели*Кадры) : 0.234Размер потока : 958 Мбайт (91%)
АудиоИдентификатор : 192 (0xC0)Формат : MPEG AudioВерсия формата : Version 1Профиль формата : Layer 2Продолжительность : 56 м.Вид битрейта : ПостоянныйБитрейт : 192 Кбит/секКаналы : 2 каналаЧастота : 48,0 КГцМетод сжатия : С потерямиРазмер потока : 77,5 Мбайт (7%)
Запись и монтаж:
Раздача группы:

Внимание ! Раздача ведётся путём добавления новых серий

Внимание! Раздача ведётся путём добавления новых серий; при каждом добавлении создётся новый торрент. Чтобы начать докачку новой серии, пользователям необходимо сделать следующее:
(1) остановить скачивание,
(2) удалить старый торрент у себя из клиента (старые серии удалять не надо),
(3) скачать новый торрент и запустить его у себя в клиенте вместо старого, при этом указать клиенту путь в старую папку куда и должно происходить скачивание новых серий.
Ваш клиент при этом должен произвести хеширование (проверку) старой папки (если не производит сам - помогите ему сделать это), и будет докачивать только те серии которых у вас ещё нет. Старые серии при этом не удаляются, а продолжают раздаваться!
Eсли вы уже удалили старые серии, то предотвратить повторную закачку старых серий можно, отжав галочку в соответсвующих местах при запуске нового торрента. По возможности, желательно не удалять старые серии как можно дольше чтобы релизёр не столько продолжал раздавать старые серии, а смог сконцентрироваться на новых.
ВНИМАНИЕ! ТОРРЕНТ ПЕРЕЗАЛИТ! ДОБАВЛЕНА 23-ая - 24-ая СЕРИИ!

Скриншоты

[Цитировать]



Показать сообщения:    

Текущее время: 02-Дек 22:50

Часовой пояс: UTC + 3


Вы не можете начинать темы
Вы не можете отвечать на сообщения
Вы не можете редактировать свои сообщения
Вы не можете удалять свои сообщения
Вы не можете голосовать в опросах
Вы не можете прикреплять файлы к сообщениям
Вы не можете скачивать файлы

!ВНИМАНИЕ!
Сайт не предоставляет электронные версии произведений, а занимается лишь коллекционированием и каталогизацией ссылок, присылаемых и публикуемых на форуме нашими читателями. Если вы являетесь правообладателем какого-либо представленного материала и не желаете, чтобы ссылка на него находилась в нашем каталоге, свяжитесь с нами, и мы незамедлительно удалим ее. Файлы для обмена на трекере предоставлены пользователями сайта, и администрация не несет ответственности за их содержание. Просьба не заливать файлы, защищенные авторскими правами, а также файлы нелегального содержания!