[ Сегодня идет свободное скачивание без начисления Download ]


Статистика раздачи
Нет
 
   
 
Top  
 
 
Сын ворона
Год выпуска: 2014
Производство: Мотор Фильм Студия
Жанр: Исторический фильм, приключения
Продолжительность: ~00:45:00
Субтитры: нет
Режиссёр: Александр Щурихин
В ролях: Александр Прудников, Светлана Левичева, Юлия Подозёрова, Николай Сахаров, Максим Башкин, Надежда Бахтина, Борис Щербаков, Ольга Бынкова, Сергей Горбачев (II), Николай Зазуля, Александр Давыдов (III), Диана Морозова, Олег Лебедев-Бовольский, Максимилиан Потёмкин, Андрей Ланд, Вячеслав Ганенко
Описание:XII век. В ночном море пираты Балтийского побережья замечают купеческий ког. Бандиты зажигают фальш-маяк и вскоре судно налетает на рифы. Собирая выброшенную на берег добычу, пираты обнаруживают под светом факелов люльку с ребенком, который чудом остался в живых. На край колыбели садится ворон. Ясно, что это знак, посланный богами с небес. У местного вождя Радомира когда-то в одном из набегов погиб сын, поэтому он усыновляет младенца и дает ему имя Роарг, что значит "сын ворона"...

Название фильмов

Фильм 1 - Добыча
Фильм 2 - Жертвоприношение
Фильм 3 - Рабство
Фильм 4 - Возвращение
Все раздачи сериала:

Качество: DVB
Формат: TS
Видео кодек: H.264
Аудио кодек: MPEG 1
Видео: H.263 768х576 @ 720x576 (4:3) 25.00fps ~2523 Kbps (0.243 bit/pixel)
Аудио: MPEG Audio 48000Hz 2 channels 192 Кбит/сек
Сторонней рекламы нет!

MediaInfo

ОбщееИдентификатор                    : 1 (0x1)Полное имя                       : F:\Сын ворона DVB\Сын Ворона 01_серия_DVB_by_Wowa63_&_Серый1779.tsФормат                           : MPEG-TSРазмер файла                     : 947 МбайтПродолжительность                : 46 м.Общий поток                      : 2858 Кбит/сек
ВидеоИдентификатор : 69 (0x45)Идентификатор меню : 1 (0x1)Формат : AVCФормат/Информация : Advanced Video CodecПрофиль формата : High@L4.1Параметр CABAC формата : ДаПараметр ReFrames формата : 3 кадраИдентификатор кодека : 27Продолжительность : 46 м.Битрейт : 2523 Кбит/секШирина : 720 пикс.Высота : 576 пикс.Соотношение сторон : 4:3Частота кадров : 25,000 кадр/секСтандарт вещания : PALЦветовое пространство : YUVПодвыборка цветности : 4:2:0Битовая глубина : 8 битТип развёртки : ПрогрессивнаяБит/(Пиксели*Кадры) : 0.243Размер потока : 836 Мбайт (88%)
АудиоИдентификатор : 68 (0x44)Идентификатор меню : 1 (0x1)Формат : MPEG AudioВерсия формата : Version 1Профиль формата : Layer 2Идентификатор кодека : 3Продолжительность : 46 м.Вид битрейта : ПостоянныйБитрейт : 192 Кбит/секКаналы : 2 каналаЧастота : 48,0 КГцМетод сжатия : С потерямиРазмер потока : 63,6 Мбайт (7%)Язык : English
Запись:
Оформление:
Раздача группы:

Внимание ! Раздача ведётся путём добавления новых серий

Внимание! Раздача ведётся путём добавления новых серий; при каждом добавлении создётся новый торрент. Чтобы начать докачку новой серии, пользователям необходимо сделать следующее:
(1) остановить скачивание,
(2) удалить старый торрент у себя из клиента (старые серии удалять не надо),
(3) скачать новый торрент и запустить его у себя в клиенте вместо старого, при этом указать клиенту путь в старую папку куда и должно происходить скачивание новых серий.
Ваш клиент при этом должен произвести хеширование (проверку) старой папки (если не производит сам - помогите ему сделать это), и будет докачивать только те серии которых у вас ещё нет. Старые серии при этом не удаляются, а продолжают раздаваться!
Eсли вы уже удалили старые серии, то предотвратить повторную закачку старых серий можно, отжав галочку в соответсвующих местах при запуске нового торрента. По возможности, желательно не удалять старые серии как можно дольше чтобы релизёр не столько продолжал раздавать старые серии, а смог сконцентрироваться на новых.
ВНИМАНИЕ! ТОРРЕНТ ПЕРЕЗАЛИТ! ДОБАВЛЕНА 5-ая - 8-ая СЕРИИ!

Скриншоты

[Цитировать]



Показать сообщения:    

Текущее время: 08-Дек 17:02

Часовой пояс: UTC + 3


Вы не можете начинать темы
Вы не можете отвечать на сообщения
Вы не можете редактировать свои сообщения
Вы не можете удалять свои сообщения
Вы не можете голосовать в опросах
Вы не можете прикреплять файлы к сообщениям
Вы не можете скачивать файлы

!ВНИМАНИЕ!
Сайт не предоставляет электронные версии произведений, а занимается лишь коллекционированием и каталогизацией ссылок, присылаемых и публикуемых на форуме нашими читателями. Если вы являетесь правообладателем какого-либо представленного материала и не желаете, чтобы ссылка на него находилась в нашем каталоге, свяжитесь с нами, и мы незамедлительно удалим ее. Файлы для обмена на трекере предоставлены пользователями сайта, и администрация не несет ответственности за их содержание. Просьба не заливать файлы, защищенные авторскими правами, а также файлы нелегального содержания!