[ Сегодня идет свободное скачивание без начисления Download ]


Статистика раздачи
Нет
 
   
 
Top  
 
 
Все сокровища мира
Год выпуска: 2014
Производство: Медиапрофсоюз
Жанр: Мелодрама
Продолжительность: ~00:48:00
Субтитры: украинские (вшитые)
Режиссёр: Александр Ефремов
В ролях: Мария Козакова, Алёна Яковлева, Сергей Журавель, Павел Южаков-Харланчук, Валерия Шкирандо, Андрей Биланов, Максим Радугин, Дмитрий Бедерин, Вероника Пляшкевич, Анна Хитрик, Сергей Пукита, Игорь Подливальчев, Лариса Маршалова, Елена Дубровская, Татьяна Бовкалова, Светлана Никифорова, Олеся Грибок, Елена Стеценко, Анастасия Боброва, Татьяна Чердынцева
Описание: После окончания вуза Анна Бессонова возвращается в родной Приморск. Анна - дипломированный эксперт по антиквариату и могла бы сделать хорошую карьеру в Москве, но дома у Ани больная мама, за которой нужно ухаживать.
Однако и в маленьком городке Ане улыбается удача – девушка получает интересную работу в антикварном салоне «Сокровища мира» и встречает свою первую любовь – красавца Влада Бережнова. Вскоре Аня беременеет, и они с Владом решают пожениться. Аня счастлива – ее жизнь похожа на сказку. Девушка не догадывается, что «увела» Влада у дочери влиятельной чиновницы и «хозяйки города» Ангелины Вороновой. Дочь Вороновой клянется уничтожить Аню, и это не пустые угрозы. Воронова обожает дочь, готова сделать для нее что угодно, и «убрать» человека для Вороновой не проблема.
Параллельно Аня оказывается втянута в аферу, которую затеял ее начальник, владелец антикварного салона Глеб Крутов. Крутов и Воронова охотятся за редкой коллекцией «Кали-Юга», состоящей из ритуальных золотых вещей служителей культа богини Кали. Крутов и Воронова подозревают, что коллекция находится у местного коллекционера, Петра Петровича Староверова. Староверов не желает иметь дела с Крутовым, справедливо считая его мошенником и бандитом, однако доверяется Ане – при случайном знакомстве его поражают знания Ани и ее честность. Аня оказывается единственным человеком, которому Староверов показывает коллекцию, которую собирал всю жизнь. Но в коллекции не хватает последней детали – ритуальной Золотой Маски. Староверов просит Аню помочь ее найти. Аня соглашается, а через несколько дней старого коллекционера находят мертвым. Подозрение в убийстве падает на Аню.
Дальше все происходит как в страшном сне: девушку арестовывают и осуждают на большой срок, ее мама умирает от сердечного приступа прямо в зале суда, Влад предает Аню, в тюрьме она теряет ребенка. Ане кажется, что ее жизнь кончена, но это не так. Постепенно девушка начинает догадываться, что оказалась в тюрьме не случайно. Что в этом виновата не злая судьба, а злая воля конкретных людей: Крутова, Вороновой и подкупленных ими судей и чиновников.
Теперь цель героини – восстановить справедливость, воздать по заслугам всем, кто сломал ей жизнь. Вернуть свободу и любовь, которые для Ани дороже всех сокровищ мира.
Все раздачи сериала:

Качество: DVB
Формат: MPEG-TS
Видео кодек: MPEG2
Аудио кодек: MPEG1
Видео: MPEG2 Video 768х576 @ 720x576 (4:3) 25.00fps ~4473 Kbps (0.431 bit/pixel)
Аудио: MPEG Audio 48000Hz 1 channels 192 Кбит/сек
Сторонней рекламы нет!

MediaInfo

ОбщееПолное имя                       : F:\Все сокровища мира DVB\Все сокровища мира 01_серия_DVB_by_Серый1779.mpgФормат                           : MPEG-PSРазмер файла                     : 1,61 ГбайтПродолжительность                : 48 м.Общий поток                      : 4759 Кбит/секБиблиотека кодирования           : (c) 1998-2008 Womble Multimedia, Inc. / MPEG Video Wizard (08/2008) / Aug 25 2008
ВидеоИдентификатор : 224 (0xE0)Формат : MPEG VideoВерсия формата : Version 2Профиль формата : Main@MainПараметр BVOP формата : ДаПараметр матрицы формата : По умолчаниюПродолжительность : 48 м.Вид битрейта : ПеременныйБитрейт : 4473 Кбит/секНоминальный битрейт : 15,0 Мбит/секШирина : 720 пикс.Высота : 576 пикс.Соотношение сторон : 4:3Частота кадров : 25,000 кадр/секСтандарт вещания : PALЦветовое пространство : YUVПодвыборка цветности : 4:2:0Битовая глубина : 8 битТип развёртки : ЧересстрочнаяПорядок развёртки : Верхнее поле первоеМетод сжатия : С потерямиБит/(Пиксели*Кадры) : 0.431Размер потока : 1,52 Гбайт (94%)Библиотека кодирования : (c) 1998-2008 Womble Multimedia, Inc. / MPEG Video Wizard (08/2008) / Aug 25 2008
АудиоИдентификатор : 192 (0xC0)Формат : MPEG AudioВерсия формата : Version 1Профиль формата : Layer 2Продолжительность : 48 м.Вид битрейта : ПостоянныйБитрейт : 192 Кбит/секКаналы : 1 каналЧастота : 48,0 КГцМетод сжатия : С потерямиРазмер потока : 66,6 Мбайт (4%)
Запись и монтаж:
Раздача группы:

Внимание ! Раздача ведётся путём добавления новых серий

Внимание! Раздача ведётся путём добавления новых серий; при каждом добавлении создётся новый торрент. Чтобы начать докачку новой серии, пользователям необходимо сделать следующее:
(1) остановить скачивание,
(2) удалить старый торрент у себя из клиента (старые серии удалять не надо),
(3) скачать новый торрент и запустить его у себя в клиенте вместо старого, при этом указать клиенту путь в старую папку куда и должно происходить скачивание новых серий.
Ваш клиент при этом должен произвести хеширование (проверку) старой папки (если не производит сам - помогите ему сделать это), и будет докачивать только те серии которых у вас ещё нет. Старые серии при этом не удаляются, а продолжают раздаваться!
Eсли вы уже удалили старые серии, то предотвратить повторную закачку старых серий можно, отжав галочку в соответсвующих местах при запуске нового торрента. По возможности, желательно не удалять старые серии как можно дольше чтобы релизёр не столько продолжал раздавать старые серии, а смог сконцентрироваться на новых.
ВНИМАНИЕ! ТОРРЕНТ ПЕРЕЗАЛИТ! ДОБАВЛЕНА 5-ая - 8-ая СЕРИИ!

Скриншоты

[Цитировать]



Показать сообщения:    

Текущее время: 11-Дек 11:02

Часовой пояс: UTC + 3


Вы не можете начинать темы
Вы не можете отвечать на сообщения
Вы не можете редактировать свои сообщения
Вы не можете удалять свои сообщения
Вы не можете голосовать в опросах
Вы не можете прикреплять файлы к сообщениям
Вы не можете скачивать файлы

!ВНИМАНИЕ!
Сайт не предоставляет электронные версии произведений, а занимается лишь коллекционированием и каталогизацией ссылок, присылаемых и публикуемых на форуме нашими читателями. Если вы являетесь правообладателем какого-либо представленного материала и не желаете, чтобы ссылка на него находилась в нашем каталоге, свяжитесь с нами, и мы незамедлительно удалим ее. Файлы для обмена на трекере предоставлены пользователями сайта, и администрация не несет ответственности за их содержание. Просьба не заливать файлы, защищенные авторскими правами, а также файлы нелегального содержания!