[ Сегодня идет свободное скачивание без начисления Download ]


Статистика раздачи
Нет
 
   
 
Top  
 
 
Сын ворона
Год выпуска: 2014
Производство: Мотор Фильм Студия
Жанр: Исторический фильм, приключения
Продолжительность: ~00:45:00
Субтитры: нет
Режиссёр: Александр Щурихин
В ролях: Александр Прудников, Светлана Левичева, Юлия Подозёрова, Николай Сахаров, Максим Башкин, Надежда Бахтина, Борис Щербаков, Ольга Бынкова, Сергей Горбачев (II), Николай Зазуля, Александр Давыдов (III), Диана Морозова, Олег Лебедев-Бовольский, Максимилиан Потёмкин, Андрей Ланд, Вячеслав Ганенко
Описание:XII век. В ночном море пираты Балтийского побережья замечают купеческий ког. Бандиты зажигают фальш-маяк и вскоре судно налетает на рифы. Собирая выброшенную на берег добычу, пираты обнаруживают под светом факелов люльку с ребенком, который чудом остался в живых. На край колыбели садится ворон. Ясно, что это знак, посланный богами с небес. У местного вождя Радомира когда-то в одном из набегов погиб сын, поэтому он усыновляет младенца и дает ему имя Роарг, что значит "сын ворона"...
Все раздачи сериала:

Качество: SATRip
Формат: AVI
Видео кодек: XviD
Аудио кодек: АС-3
Видео: 720x400 (1.80:1), 25 fps, XviD build 50 ~1600 kbps avg, 0.22 bit/pixel
Аудио: 48 kHz, AC3 Dolby Digital, 2/0 (L,R) ch, ~192.00 kbps avg
Сторонней рекламы нет!

MediaInfo

GeneralComplete name               : D:\Vytas\Video\Syn.vorona.2014.SATRip.RG.Russkie.serialy.&.Files-x-Generalfilm\01.Syn.vorona.2014.SATRip.RG.Russkie.serialy.&.Files-x-Generalfilm.aviFormat                      : AVIFormat/Info                 : Audio Video InterleaveFile size                   : 550 MiBDuration                    : 46mn 20sOverall bit rate            : 1 659 KbpsWriting application         : VirtualDubModRus 1.5.10.2 (build 2542/release)Writing library             : VirtualDubMod build 2542/release
VideoID : 0Format : MPEG-4 VisualFormat profile : Advanced [email protected] settings, BVOP : 1Format settings, QPel : NoFormat settings, GMC : No warppointsFormat settings, Matrix : CustomCodec ID : XVIDCodec ID/Hint : XviDDuration : 46mn 20sBit rate : 1 457 KbpsWidth : 720 pixelsHeight : 400 pixelsDisplay aspect ratio : 16:9Frame rate : 25.000 fpsColor space : YUVChroma subsampling : 4:2:0Bit depth : 8 bitsScan type : ProgressiveCompression mode : LossyBits/(Pixel*Frame) : 0.202Stream size : 483 MiB (88%)Writing library : XviD 73
AudioID : 1Format : AC-3Format/Info : Audio Coding 3Mode extension : CM (complete main)Format settings, Endianness : BigCodec ID : 2000Duration : 46mn 20sBit rate mode : ConstantBit rate : 192 KbpsChannel(s) : 2 channelsChannel positions : Front: L RSampling rate : 48.0 KHzBit depth : 16 bitsCompression mode : LossyStream size : 63.6 MiB (12%)Alignment : Split accross interleavesInterleave, duration : 40 ms (1.00 video frame)Interleave, preload duratio : 500 ms
Рип:
Релиз группа:
Раздача группы:

Внимание ! Раздача ведётся путём добавления новых серий

Внимание! Раздача ведётся путём добавления новых серий; при каждом добавлении создётся новый торрент. Чтобы начать докачку новой серии, пользователям необходимо сделать следующее:
(1) остановить скачивание,
(2) удалить старый торрент у себя из клиента (старые серии удалять не надо),
(3) скачать новый торрент и запустить его у себя в клиенте вместо старого, при этом указать клиенту путь в старую папку куда и должно происходить скачивание новых серий.
Ваш клиент при этом должен произвести хеширование (проверку) старой папки (если не производит сам - помогите ему сделать это), и будет докачивать только те серии которых у вас ещё нет. Старые серии при этом не удаляются, а продолжают раздаваться!
Eсли вы уже удалили старые серии, то предотвратить повторную закачку старых серий можно, отжав галочку в соответсвующих местах при запуске нового торрента. По возможности, желательно не удалять старые серии как можно дольше чтобы релизёр не столько продолжал раздавать старые серии, а смог сконцентрироваться на новых.
ВНИМАНИЕ! ТОРРЕНТ ПЕРЕЗАЛИТ! ДОБАВЛЕНА 5-8-ая СЕРИИ!

Скриншоты

[Цитировать]



Показать сообщения:    

Текущее время: 05-Дек 03:29

Часовой пояс: UTC + 3


Вы не можете начинать темы
Вы не можете отвечать на сообщения
Вы не можете редактировать свои сообщения
Вы не можете удалять свои сообщения
Вы не можете голосовать в опросах
Вы не можете прикреплять файлы к сообщениям
Вы не можете скачивать файлы

!ВНИМАНИЕ!
Сайт не предоставляет электронные версии произведений, а занимается лишь коллекционированием и каталогизацией ссылок, присылаемых и публикуемых на форуме нашими читателями. Если вы являетесь правообладателем какого-либо представленного материала и не желаете, чтобы ссылка на него находилась в нашем каталоге, свяжитесь с нами, и мы незамедлительно удалим ее. Файлы для обмена на трекере предоставлены пользователями сайта, и администрация не несет ответственности за их содержание. Просьба не заливать файлы, защищенные авторскими правами, а также файлы нелегального содержания!