[ Сегодня идет свободное скачивание без начисления Download ]


Статистика раздачи
Нет
 
   
 
Top  
 
 
Все сокровища мира
Год выпуска: 2014
Производство: кинокомпания "Медиапрофсоюз"
Жанр: Мелодрама
Продолжительность: 8 x ~00:49:00
Субтитры: Нет
Режиссёр: Александр Ефремов
В ролях: Мария Козакова, Алёна Яковлева, Сергей Журавель, Павел Южаков-Харланчук, Валерия Шкирандо, Андрей Биланов, Максим Радугин, Дмитрий Бедерин, Вероника Пляшкевич, Анна Хитрик, Сергей Пукита, Игорь Подливальчев, Лариса Маршалова, Елена Дубровская, Татьяна Бовкалова, Светлана Никифорова, Олеся Грибок, Елена Стеценко, Анастасия Боброва, Татьяна Чердынцева
Описание: После окончания вуза Анна Бессонова возвращается в родной Приморск. Анна - дипломированный эксперт по антиквариату и могла бы сделать хорошую карьеру в Москве, но дома у Ани больная мама, за которой нужно ухаживать.
Однако и в маленьком городке Ане улыбается удача – девушка получает интересную работу в антикварном салоне «Сокровища мира» и встречает свою первую любовь – красавца Влада Бережнова. Вскоре Аня беременеет, и они с Владом решают пожениться. Аня счастлива – ее жизнь похожа на сказку. Девушка не догадывается, что «увела» Влада у дочери влиятельной чиновницы и «хозяйки города» Ангелины Вороновой. Дочь Вороновой клянется уничтожить Аню, и это не пустые угрозы. Воронова обожает дочь, готова сделать для нее что угодно, и «убрать» человека для Вороновой не проблема.
Параллельно Аня оказывается втянута в аферу, которую затеял ее начальник, владелец антикварного салона Глеб Крутов. Крутов и Воронова охотятся за редкой коллекцией «Кали-Юга», состоящей из ритуальных золотых вещей служителей культа богини Кали. Крутов и Воронова подозревают, что коллекция находится у местного коллекционера, Петра Петровича Староверова. Староверов не желает иметь дела с Крутовым, справедливо считая его мошенником и бандитом, однако доверяется Ане – при случайном знакомстве его поражают знания Ани и ее честность. Аня оказывается единственным человеком, которому Староверов показывает коллекцию, которую собирал всю жизнь. Но в коллекции не хватает последней детали – ритуальной Золотой Маски. Староверов просит Аню помочь ее найти. Аня соглашается, а через несколько дней старого коллекционера находят мертвым. Подозрение в убийстве падает на Аню.
Дальше все происходит как в страшном сне: девушку арестовывают и осуждают на большой срок, ее мама умирает от сердечного приступа прямо в зале суда, Влад предает Аню, в тюрьме она теряет ребенка. Ане кажется, что ее жизнь кончена, но это не так. Постепенно девушка начинает догадываться, что оказалась в тюрьме не случайно. Что в этом виновата не злая судьба, а злая воля конкретных людей: Крутова, Вороновой и подкупленных ими судей и чиновников.
Теперь цель героини – восстановить справедливость, воздать по заслугам всем, кто сломал ей жизнь. Вернуть свободу и любовь, которые для Ани дороже всех сокровищ мира.
-
Доп. информация: Реклама отсутствует!
-
Релиз группы::
-
Все раздачи сериала:
Сэмпл: https://cloud.mail.ru/public/480280f17995/%D0%92%D1...Rip.by.simka.avi
Качество: SATRip
Формат: AVI
Видео кодек: XviD
Аудио кодек: MP3
Видео: 720x400, 25 fps, XviD, ~1400 kbps, 0.229 bit/pixel
Аудио: 48 kHz, MPEG Layer 3, 2 ch, 192 kbps

MI

Общее
Полное имя : U:\Сериалы (2014)_2\Все сокровища мира (2014)\Все сокровища мира.(01.seriya).2014.XviD.SATRip.by.simka.avi
Формат : AVI
Формат/Информация : Audio Video Interleave
Размер файла : 567 Мбайт
Продолжительность : 49 м.
Общий поток : 1600 Кбит/сек
Программа кодирования : VirtualDubModRus 1.5.10.2 (build 2542/release)
Библиотека кодирования : VirtualDubMod build 2542/release
Видео
Идентификатор : 0
Формат : MPEG-4 Visual
Профиль формата : Advanced [email protected]
Параметр BVOP формата : 1
Параметр QPel формата : Нет
Параметр GMC формата : Без точки перехода
Параметр матрицы формата : Default (MPEG)
Идентификатор кодека : XVID
Идентификатор кодека/Подсказка : XviD
Продолжительность : 49 м.
Битрейт : 1399 Кбит/сек
Ширина : 720 пикселей
Высота : 400 пикселей
Соотношение сторон : 16:9
Частота кадров : 25,000 кадров/сек
Цветовое пространство : YUV
Субдискретизация насыщенности : 4:2:0
Битовая глубина : 8 бит
Тип развёртки : Прогрессивная
Метод сжатия : С потерями
Бит/(Пиксели*Кадры) : 0.194
Размер потока : 495 Мбайт (87%)
Библиотека кодирования : XviD 1.2.1 (UTC 2008-12-04)
Аудио
Идентификатор : 1
Формат : MPEG Audio
Версия формата : Version 1
Профиль формата : Layer 3
Режим : Joint stereo
Расширение режима : MS Stereo
Идентификатор кодека : 55
Идентификатор кодека/Подсказка : MP3
Продолжительность : 49 м.
Вид битрейта : Постоянный
Битрейт : 192 Кбит/сек
Каналы : 2 канала
Частота : 48,0 КГц
Метод сжатия : С потерями
Размер потока : 68,0 Мбайт (12%)
Выравнивание : Соединение по промежуткам
Продолжительность промежутка : 40 мс. (1,00 видеокадр)
Время предзагрузки промежутка : 504 мс.
Библиотека кодирования : LAME3.99r
Настройки программы : -m j -V 4 -q 2 -lowpass 18.6 -b 192

Скриншоты

-------------

Внимание! Раздача ведётся путём добавления новых выпусков

При каждом добавлении создаётся новый торрент. Чтобы начать докачку нового выпуска, пользователям необходимо сделать следующее:
? остановить скачивание;
? удалить старый торрент у себя из клиента (старые выпуски удалять не надо);
? скачать новый торрент и запустить его у себя в клиенте вместо старого, при этом указать клиенту путь в старую папку куда и должно происходить скачивание новых выпусков;
? ваш клиент при запуске должен произвести хеширование (проверку) старой папки (если не производит сам - помогите ему сделать это), и будет докачивать только те выпуски, которых у вас ещё нет. Старые выпуски при этом не удаляются, а продолжают раздаваться!, Конец фильма!, Продолжения в понедельник если не доберется ПО http://inter.ua/ru/cinema/films/muzh_na_chas_2014 http://6.firepic.org/6/images/2014-07/30/9f572qp4ljwf.jpg
? Eсли вы уже удалили старые выпуски, то предотвратить повторную закачку старых выпусков можно, отжав галочку в соответсвующих местах при запуске нового торрента.4 x ~01:30:00, Серии порезанныевнимания в 4-й серии отсутствует около 7 минут из за погодних условий завтра с повтора надеюсь записать и будет замена!!! Концовка есть думаю не поттера ети 7 мин
Добавлена 8-я серия!

[Цитировать]



Показать сообщения:    

Текущее время: 05-Дек 19:41

Часовой пояс: UTC + 3


Вы не можете начинать темы
Вы не можете отвечать на сообщения
Вы не можете редактировать свои сообщения
Вы не можете удалять свои сообщения
Вы не можете голосовать в опросах
Вы не можете прикреплять файлы к сообщениям
Вы не можете скачивать файлы

!ВНИМАНИЕ!
Сайт не предоставляет электронные версии произведений, а занимается лишь коллекционированием и каталогизацией ссылок, присылаемых и публикуемых на форуме нашими читателями. Если вы являетесь правообладателем какого-либо представленного материала и не желаете, чтобы ссылка на него находилась в нашем каталоге, свяжитесь с нами, и мы незамедлительно удалим ее. Файлы для обмена на трекере предоставлены пользователями сайта, и администрация не несет ответственности за их содержание. Просьба не заливать файлы, защищенные авторскими правами, а также файлы нелегального содержания!