[ Сегодня идет свободное скачивание без начисления Download ]


Статистика раздачи
Нет
 
   
 
Top  
 
 
Когда его совсем не ждешь
Год выпуска: 2014
Производство: Россия, ABC Film, Film Stream
Жанр: Мелодрама
Продолжительность: ~0:45:00 серия
Субтитры: нет
Режиссёр: Екатерина Гранитова-Лавровская
В ролях: Ирина Горячева, Александр Ефимов, Анна Уколова, Анна Арланова, Алексей Фатеев, Пётр Баранчеев, Натали Старынкевич, Андрей Заводюк
Описание: В жизни Сони есть всё, кроме главного женского счастья – ребенка. Уже много лет героиня с мужем Алексеем пытаются изменить это, но все их попытки тщетны. Наконец, пара решается прибегнуть к дорогостоящей процедуре искусственного оплодотворения. Но неожиданно в жизнь Сони приходят страшные перемены. Выясняется, что у ее мужа есть внебрачная дочь, о которой он не знал. Мать девочки погибла, и теперь Алексей намерен взять ее семью. Вслед за потрясениями героиню ждет самый страшный удар: муж хочет оставить бесплодные попытки завести детей и, вместо этого, вложить деньги в воспитание новоявленной дочери. Не в силах пережить предательства, Соня рвет отношения и остается одна…
Все раздачи сериала:

Качество: HDTV 1080i
Формат: TS
Видео кодек: H.264
Аудио кодек: MP2
Видео: MPEG4 Video (H264) 1920x1080, ~ 7446 Кбит/сек, 25.00fps 0.144 bit/pixel
Аудио: MP2, 2 канала, 48,0 КГц, ~192 kbps
Сторонней рекламы нет!

MediaInfo

GeneralID                                       : 1 (0x1)Complete name                            : Kogda.ego.sovsem.ne.zhdesh.01.HDTV.1080i.tsFormat                                   : MPEG-TSFile size                                : 4.95 GiBDuration                                 : 1h 28mnOverall bit rate mode                    : VariableOverall bit rate                         : 8 037 Kbps
VideoID : 2911 (0xB5F)Menu ID : 1 (0x1)Format : AVCFormat/Info : Advanced Video CodecFormat profile : High@L4.0Format settings, CABAC : YesFormat settings, ReFrames : 4 framesCodec ID : 27Duration : 1h 28mnBit rate : 7 446 KbpsWidth : 1 920 pixelsHeight : 1 080 pixelsDisplay aspect ratio : 16:9Frame rate : 25.000 fpsColor space : YUVChroma subsampling : 4:2:0Bit depth : 8 bitsScan type : MBAFFBits/(Pixel*Frame) : 0.144Stream size : 4.59 GiB (93%)
AudioID : 2912 (0xB60)Menu ID : 1 (0x1)Format : MPEG AudioFormat version : Version 1Format profile : Layer 2Codec ID : 3Duration : 1h 28mnBit rate mode : ConstantBit rate : 192 KbpsChannel count : 2 channelsSampling rate : 48.0 KHzCompression mode : LossyStream size : 121 MiB (2%)Language : Russian
Раздача группы:
Отдельное спасибо daboen за предоставление материала.
Отдельная громадная благодарность Media-Art-Club за созданный постер к раздаче.

Внимание ! Раздача ведётся путём добавления новых серий

Внимание! Раздача ведётся путём добавления новых серий; при каждом добавлении создётся новый торрент. Чтобы начать докачку новой серии, пользователям необходимо сделать следующее:
(1) остановить скачивание,
(2) удалить старый торрент у себя из клиента (старые серии удалять не надо),
(3) скачать новый торрент и запустить его у себя в клиенте вместо старого, при этом указать клиенту путь в старую папку куда и должно происходить скачивание новых серий.
Ваш клиент при этом должен произвести хеширование (проверку) старой папки (если не производит сам - помогите ему сделать это), и будет докачивать только те серии которых у вас ещё нет. Старые серии при этом не удаляются, а продолжают раздаваться!
Eсли вы уже удалили старые серии, то предотвратить повторную закачку старых серий можно, отжав галочку в соответсвующих местах при запуске нового торрента. По возможности, желательно не удалять старые серии как можно дольше чтобы релизёр не столько продолжал раздавать старые серии, а смог сконцентрироваться на новых.
ВНИМАНИЕ! ТОРРЕНТ ПЕРЕЗАЛИТ! ДОБАВЛЕНА 3-ая - 4-ая СЕРИИ!

Скриншоты

[Цитировать]



Показать сообщения:    

Текущее время: 02-Дек 21:08

Часовой пояс: UTC + 3


Вы не можете начинать темы
Вы не можете отвечать на сообщения
Вы не можете редактировать свои сообщения
Вы не можете удалять свои сообщения
Вы не можете голосовать в опросах
Вы не можете прикреплять файлы к сообщениям
Вы не можете скачивать файлы

!ВНИМАНИЕ!
Сайт не предоставляет электронные версии произведений, а занимается лишь коллекционированием и каталогизацией ссылок, присылаемых и публикуемых на форуме нашими читателями. Если вы являетесь правообладателем какого-либо представленного материала и не желаете, чтобы ссылка на него находилась в нашем каталоге, свяжитесь с нами, и мы незамедлительно удалим ее. Файлы для обмена на трекере предоставлены пользователями сайта, и администрация не несет ответственности за их содержание. Просьба не заливать файлы, защищенные авторскими правами, а также файлы нелегального содержания!