[ Сегодня идет свободное скачивание без начисления Download ]


Статистика раздачи
Нет
 
   
 
Top  
 
 
Когда его совсем не ждешь Год выпуска: 2014
Производство: Россия, кинокомпания Русское
Жанр: Мелодрама
Продолжительность: ~90 минут
Субтитры: нет
Режиссёр: Екатерина Гранитова-Лавровская
В ролях: Ирина Горячева, Александр Ефимов, Анна Уколова, Анна Арланова, Алексей Фатеев, Пётр Баранчеев, Натали Старынкевич, Андрей Заводюк
Описание: В жизни Сони есть всё, кроме главного женского счастья – ребенка. Уже много лет героиня с мужем Алексеем пытаются изменить это, но все их попытки тщетны. Наконец, пара решается прибегнуть к дорогостоящей процедуре искусственного оплодотворения. Но неожиданно в жизнь Сони приходят страшные перемены. Выясняется, что у ее мужа есть внебрачная дочь, о которой он не знал. Мать девочки погибла, и теперь Алексей намерен взять ее семью. Вслед за потрясениями героиню ждет самый страшный удар: муж хочет оставить бесплодные попытки завести детей и, вместо этого, вложить деньги в воспитание новоявленной дочери. Не в силах пережить предательства, Соня рвет отношения и остается одна…
Доп. информация: Релиз группа
Сэмпл
Качество: HDTVRip
Формат: AVI
Видео кодек: XviD
Аудио кодек: AC3
Видео: 720x400 (1.80:1), 25 fps, XviD build 73 ~2048 kbps avg, 0.22 bit/pixel
Аудио: 48 kHz, AC3 Dolby Digital, 2/0 (L,R) ch, ~192.00 kbps avg

MI

General
Complete name : Y:\раздачи\Когда.его.совсем.не.ждешь.2014.HDTV1080i.RG.Russkie.serialy.&.Files-x\01.Когда.его.совсем.не.ждешь.2014.HDTVRip.RG.Russkie.serialy.&.Files-x.avi
Format : AVI
Format/Info : Audio Video Interleave
Format profile : OpenDML
File size : 1.37 GiB
Duration : 1h 28mn
Overall bit rate : 2 220 Kbps
Writing application : Lavf53.19.0
Video
ID : 0
Format : MPEG-4 Visual
Format profile : Advanced [email protected]
Format settings, BVOP : 1
Format settings, QPel : No
Format settings, GMC : No warppoints
Format settings, Matrix : Custom
Codec ID : XVID
Codec ID/Hint : XviD
Duration : 1h 28mn
Bit rate : 2 016 Kbps
Width : 720 pixels
Height : 400 pixels
Display aspect ratio : 16:9
Frame rate : 25.000 fps
Color space : YUV
Chroma subsampling : 4:2:0
Bit depth : 8 bits
Scan type : Progressive
Compression mode : Lossy
Bits/(Pixel*Frame) : 0.280
Stream size : 1.24 GiB (91%)
Writing library : XviD 73
Audio
ID : 1
Format : AC-3
Format/Info : Audio Coding 3
Mode extension : CM (complete main)
Format settings, Endianness : Big
Codec ID : 2000
Duration : 1h 28mn
Bit rate mode : Constant
Bit rate : 192 Kbps
Channel(s) : 2 channels
Channel positions : Front: L R
Sampling rate : 48.0 KHz
Bit depth : 16 bits
Compression mode : Lossy
Stream size : 121 MiB (9%)
Alignment : Aligned on interleaves
Interleave, duration : 32 ms (0.80 video frame)

Скриншоты

[Цитировать]



Показать сообщения:    

Текущее время: 06-Дек 13:08

Часовой пояс: UTC + 3


Вы не можете начинать темы
Вы не можете отвечать на сообщения
Вы не можете редактировать свои сообщения
Вы не можете удалять свои сообщения
Вы не можете голосовать в опросах
Вы не можете прикреплять файлы к сообщениям
Вы не можете скачивать файлы

!ВНИМАНИЕ!
Сайт не предоставляет электронные версии произведений, а занимается лишь коллекционированием и каталогизацией ссылок, присылаемых и публикуемых на форуме нашими читателями. Если вы являетесь правообладателем какого-либо представленного материала и не желаете, чтобы ссылка на него находилась в нашем каталоге, свяжитесь с нами, и мы незамедлительно удалим ее. Файлы для обмена на трекере предоставлены пользователями сайта, и администрация не несет ответственности за их содержание. Просьба не заливать файлы, защищенные авторскими правами, а также файлы нелегального содержания!