[ Сегодня идет свободное скачивание без начисления Download ]


Статистика раздачи
Нет
 
   
 
Top  
 
 
Когда его совсем не ждешь
Год выпуска: 2014
Производство: Россия, ABC Film, Film Stream
Жанр: Мелодрама
Продолжительность: ~0:45:00 серия
Субтитры: нет
Режиссёр: Екатерина Гранитова-Лавровская
В ролях: Ирина Горячева, Александр Ефимов, Анна Уколова, Анна Арланова, Алексей Фатеев, Пётр Баранчеев, Натали Старынкевич, Андрей Заводюк
Описание: В жизни Сони есть всё, кроме главного женского счастья – ребенка. Уже много лет героиня с мужем Алексеем пытаются изменить это, но все их попытки тщетны. Наконец, пара решается прибегнуть к дорогостоящей процедуре искусственного оплодотворения. Но неожиданно в жизнь Сони приходят страшные перемены. Выясняется, что у ее мужа есть внебрачная дочь, о которой он не знал. Мать девочки погибла, и теперь Алексей намерен взять ее семью. Вслед за потрясениями героиню ждет самый страшный удар: муж хочет оставить бесплодные попытки завести детей и, вместо этого, вложить деньги в воспитание новоявленной дочери. Не в силах пережить предательства, Соня рвет отношения и остается одна…
Все раздачи сериала:

Качество: HDTVRip 720p
Формат: MKV
Видео кодек: H.264
Аудио кодек: AC-3
Видео: MPEG4 Video (H264) 1280x720, ~ 4604 kbps, 25.00fps 0.20 bit/pixel
Аудио: AC-3, 2 канала, 48,0 КГц, ~192 kbps, VBR
Сторонней рекламы нет!

MediaInfo

ОбщееУникальный идентификатор                 : 225594858591709113617193570490295882759 (0xA9B7FD45CA2F9A539364C6C48AB99407)Полное имя                               : Kogda.ego.sovsem.ne.zhdeshj.HDTVRip.720p.gogamel74.ExKinoRayФормат                                   : MatroskaВерсия формата                           : Version 4 / Version 2Размер файла                             : 2,96 ГбайтПродолжительность                        : 1 ч. 28 м.Общий поток                              : 4798 Кбит/секНазвание фильма                          : Kogda.ego.sovsem.ne.zhdeshj.01seriya.x264.HDTVRip.720p.gogamel74.ExKinoRayДата кодирования                         : UTC 2014-12-14 09:56:09Программа кодирования                    : mkvmerge v7.4.0 ('Circles') 64bit built on Dec 12 2014 12:19:56Библиотека кодирования                   : libebml v1.3.0 + libmatroska v1.4.1Attachements                             : CoverCommander.jpg
ВидеоИдентификатор : 1Формат : AVCФормат/Информация : Advanced Video CodecПрофиль формата : High@L4.1Параметр CABAC формата : ДаПараметр ReFrames формата : 9 кадровИдентификатор кодека : V_MPEG4/ISO/AVCПродолжительность : 1 ч. 28 м.Битрейт : 4604 Кбит/секШирина : 1280 пикселейВысота : 720 пикселейСоотношение сторон : 16:9Режим частоты кадров : ПостоянныйЧастота кадров : 25,000 кадров/секЦветовое пространство : YUVСубдискретизация насыщенности : 4:2:0Битовая глубина : 8 битТип развёртки : ПрогрессивнаяБит/(Пиксели*Кадры) : 0.200Размер потока : 2,78 Гбайт (94%)Заголовок : Kogda.ego.sovsem.ne.zhdeshj.01seriya.x264.HDTVRip.720p.gogamel74.ExKinoRayБиблиотека кодирования : x264 core 142 r2431 ac76440Настройки программы : cabac=1 / ref=9 / deblock=1:-3:-3 / analyse=0x3:0x133 / me=umh / subme=11 / psy=1 / psy_rd=1.00:0.15 / mixed_ref=1 / me_range=32 / chroma_me=1 / trellis=2 / 8x8dct=1 / cqm=0 / deadzone=21,11 / fast_pskip=0 / chroma_qp_offset=-3 / threads=8 / lookahead_threads=2 / sliced_threads=0 / nr=0 / decimate=0 / interlaced=0 / bluray_compat=0 / constrained_intra=0 / bframes=10 / b_pyramid=2 / b_adapt=2 / b_bias=0 / direct=3 / weightb=1 / open_gop=0 / weightp=2 / keyint=250 / keyint_min=25 / scenecut=40 / intra_refresh=0 / rc_lookahead=60 / rc=2pass / mbtree=1 / bitrate=4604 / ratetol=1.0 / qcomp=0.70 / qpmin=0 / qpmax=69 / qpstep=4 / cplxblur=20.0 / qblur=0.5 / vbv_maxrate=50000 / vbv_bufsize=62500 / nal_hrd=none / filler=0 / ip_ratio=1.40 / aq=1:1.00Язык : RussianDefault : ДаForced : Нет
АудиоИдентификатор : 2Формат : AC-3Формат/Информация : Audio Coding 3Расширение режима : CM (complete main)Параметр Endianness формата : BigИдентификатор кодека : A_AC3Продолжительность : 1 ч. 28 м.Вид битрейта : ПостоянныйБитрейт : 192 Кбит/секКаналы : 2 каналаРасположение каналов : Front: L RЧастота : 48,0 КГцБитовая глубина : 16 битМетод сжатия : С потерямиРазмер потока : 121 Мбайт (4%)Заголовок : Original - RUS - HDTV - AC3, 48 KHz, 2 ch, 192 kbpsЯзык : RussianDefault : ДаForced : Нет
Раздача группы:
Отдельное спасибо gogamel74 за предоставление материала.
Отдельная громадная благодарность Media-Art-Club за созданный постер к раздаче.

Внимание ! Раздача ведётся путём добавления новых серий

Внимание! Раздача ведётся путём добавления новых серий; при каждом добавлении создётся новый торрент. Чтобы начать докачку новой серии, пользователям необходимо сделать следующее:
(1) остановить скачивание,
(2) удалить старый торрент у себя из клиента (старые серии удалять не надо),
(3) скачать новый торрент и запустить его у себя в клиенте вместо старого, при этом указать клиенту путь в старую папку куда и должно происходить скачивание новых серий.
Ваш клиент при этом должен произвести хеширование (проверку) старой папки (если не производит сам - помогите ему сделать это), и будет докачивать только те серии которых у вас ещё нет. Старые серии при этом не удаляются, а продолжают раздаваться!
Eсли вы уже удалили старые серии, то предотвратить повторную закачку старых серий можно, отжав галочку в соответсвующих местах при запуске нового торрента. По возможности, желательно не удалять старые серии как можно дольше чтобы релизёр не столько продолжал раздавать старые серии, а смог сконцентрироваться на новых.
ВНИМАНИЕ! ТОРРЕНТ ПЕРЕЗАЛИТ! ДОБАВЛЕНА 3-ая - 4-ая СЕРИИ!

Скриншоты

[Цитировать]



Показать сообщения:    

Текущее время: 10-Дек 23:33

Часовой пояс: UTC + 3


Вы не можете начинать темы
Вы не можете отвечать на сообщения
Вы не можете редактировать свои сообщения
Вы не можете удалять свои сообщения
Вы не можете голосовать в опросах
Вы не можете прикреплять файлы к сообщениям
Вы не можете скачивать файлы

!ВНИМАНИЕ!
Сайт не предоставляет электронные версии произведений, а занимается лишь коллекционированием и каталогизацией ссылок, присылаемых и публикуемых на форуме нашими читателями. Если вы являетесь правообладателем какого-либо представленного материала и не желаете, чтобы ссылка на него находилась в нашем каталоге, свяжитесь с нами, и мы незамедлительно удалим ее. Файлы для обмена на трекере предоставлены пользователями сайта, и администрация не несет ответственности за их содержание. Просьба не заливать файлы, защищенные авторскими правами, а также файлы нелегального содержания!