[ Сегодня идет свободное скачивание без начисления Download ]


Статистика раздачи
Нет
 
   
 
Top  
 
 
Шаповалов
Год выпуска: 2012
Производство: Россия "Моторфильм"
Жанр: Детектив
Продолжительность: ~0:45:00 серия
Субтитры: нет
Режиссёр: Илья Максимов (II)
В ролях: Александр Балуев, Евгений Пронин, Екатерина Стриженова, Валерий Баринов, Наталия Лесниковская, Николай Сердцев, Александр Кузнецов, Михаил Скачков, Дмитрий Буренков, Александр Сергеев (IV), Александра Живова, Наталья Бардо, Вероника Лысакова, Александр Числов, Андрей Москвичев, Дмитрий Артаев, Александр Сигуев, Денис Березин, Макс Уральский, Максим Дромашко, Кристина Савина, Маргарита Иванова-Донская (IV)
Описание: Майор милиции Юрий Шаповалов трудится оперативником в одном из столичных ОВД. Начальство навязывает ему в помощники вчерашнего выпускника юрфака, молодого оперативника по фамилии Гусь. Герои притираются друг к другу, однако сближение не мешает им продолжать конфликтовать по любому поводу.
Помимо работы в уголовном розыске, у Шаповалова есть ещё один, нелегальный, источник дохода: за помощью к Шаповалову, имеющему заслуженную репутацию классного сыщика, то и дело обращаются многочисленные знакомые и знакомые знакомых. По их просьбе он проводит неофициальные расследования. Причём берётся Шаповалов не за всё подряд, а лишь за те дела, которые представляют для него особый интерес, профессиональный и, что тоже играет не последнюю роль, финансовый.
Вниманием со стороны женщин Шаповалов не обделён. Он же поддерживает длительные отношения с Анной, женой весьма состоятельного человека, который за границей проводит больше времени, чем на родине.
Гибель бывшей жены вносит существенные коррективы в жизнь героя: пятнадцатилетняя дочь Маша переезжает к нему, а вместе с ней появляются новые заботы, проблемы и родительские обязанности. Теперь он уже не может позволить себе, как раньше, в любой момент забыться с помощью алкоголя, чтобы хоть на время заглушить не дающее ему покоя чувство вины
Все раздачи сериала:

Качество: HDTVRip
Формат: AVI
Видео кодек: XviD
Аудио кодек: AC3
Видео: 720x400 (1.80:1), 25 fps, XviD MPEG-4 ~1700 kbps avg, 0.236 bit/pixel
Аудио: 48 kHz, AC3 Dolby Digital, 2/0 (L,R) ch, ~192 kbps
Сторонней рекламы нет!

MediaInfo

ОбщееПолное имя                       : F:\Shapovalov.(1-16.serii.iz.16).2012.XviD.HDTVRip-biggross\Shapovalov.(01.seriya.iz.16).2012.HDTVRip.aviФормат                           : AVIФормат/Информация                : Audio Video InterleaveРазмер файла                     : 611 МбайтПродолжительность                : 44 м.Общий поток                      : 1902 Кбит/секПрограмма кодирования            : VirtualDubMod 1.5.10.3 | www.virtualdub-fr.org || (build 2550/release)Библиотека кодирования           : VirtualDubMod build 2550/release
ВидеоИдентификатор : 0Формат : MPEG-4 VisualПрофиль формата : Advanced Simple@L5Параметр BVOP формата : 2Параметр QPel формата : НетПараметр GMC формата : Без точки переходаПараметр матрицы формата : Default (H.263)Идентификатор кодека : XVIDИдентификатор кодека/Подсказка : XviDПродолжительность : 44 м.Битрейт : 1700 Кбит/секШирина : 720 пикс.Высота : 400 пикс.Соотношение сторон : 16:9Частота кадров : 25,000 кадр/секЦветовое пространство : YUVПодвыборка цветности : 4:2:0Битовая глубина : 8 битТип развёртки : ПрогрессивнаяМетод сжатия : С потерямиБит/(Пиксели*Кадры) : 0.236Размер потока : 546 Мбайт (89%)Библиотека кодирования : XviD 1.2.1 (UTC 2008-12-04)
АудиоИдентификатор : 1Формат : AC-3Формат/Информация : Audio Coding 3Расширение режима : CM (complete main)Идентификатор кодека : 2000Продолжительность : 44 м.Вид битрейта : ПостоянныйБитрейт : 192 Кбит/секКаналы : 2 каналаРасположение каналов : Front: L RЧастота : 48,0 КГцБитовая глубина : 16 битМетод сжатия : С потерямиРазмер потока : 61,7 Мбайт (10%)Выравнивание : Разделение по промежуткамПродолжительность промежутка : 40 мс. (1,00 видеокадр)Время предзагрузки промежутка : 500 ms
Раздача группы:
Отдельное спасибо biggross за предоставление материала.

Внимание ! Раздача ведётся путём добавления новых серий

Внимание! Раздача ведётся путём добавления новых серий; при каждом добавлении создётся новый торрент. Чтобы начать докачку новой серии, пользователям необходимо сделать следующее:
(1) остановить скачивание,
(2) удалить старый торрент у себя из клиента (старые серии удалять не надо),
(3) скачать новый торрент и запустить его у себя в клиенте вместо старого, при этом указать клиенту путь в старую папку куда и должно происходить скачивание новых серий.
Ваш клиент при этом должен произвести хеширование (проверку) старой папки (если не производит сам - помогите ему сделать это), и будет докачивать только те серии которых у вас ещё нет. Старые серии при этом не удаляются, а продолжают раздаваться!
Eсли вы уже удалили старые серии, то предотвратить повторную закачку старых серий можно, отжав галочку в соответсвующих местах при запуске нового торрента. По возможности, желательно не удалять старые серии как можно дольше чтобы релизёр не столько продолжал раздавать старые серии, а смог сконцентрироваться на новых.
ВНИМАНИЕ! ТОРРЕНТ ПЕРЕЗАЛИТ! ДОБАВЛЕНА 16-ая СЕРИИ!

Скриншоты

[Цитировать]



Показать сообщения:    

Текущее время: 07-Дек 17:30

Часовой пояс: UTC + 3


Вы не можете начинать темы
Вы не можете отвечать на сообщения
Вы не можете редактировать свои сообщения
Вы не можете удалять свои сообщения
Вы не можете голосовать в опросах
Вы не можете прикреплять файлы к сообщениям
Вы не можете скачивать файлы

!ВНИМАНИЕ!
Сайт не предоставляет электронные версии произведений, а занимается лишь коллекционированием и каталогизацией ссылок, присылаемых и публикуемых на форуме нашими читателями. Если вы являетесь правообладателем какого-либо представленного материала и не желаете, чтобы ссылка на него находилась в нашем каталоге, свяжитесь с нами, и мы незамедлительно удалим ее. Файлы для обмена на трекере предоставлены пользователями сайта, и администрация не несет ответственности за их содержание. Просьба не заливать файлы, защищенные авторскими правами, а также файлы нелегального содержания!