[ Сегодня идет свободное скачивание без начисления Download ]


Статистика раздачи
Нет
 
   
 
Top  
 
 
Тайны следствия-14 Год выпуска: 2014
Производство: "Студия "Панорама", "Форвард-Фильм"
Жанр: детектив, драма, криминальный фильм
Продолжительность: 00:42:00 серия
Субтитры: нет
Режиссёр: Ольга Кандидатова
В ролях: Анна Ковальчук, Вячеслав Захаров, Игорь Николаев (II), Александр Новиков (III), Ольга Павловец, Мирослав Малич, Злата Ильченко, Юлия Яковлева, Олег Алмазов, Дмитрий Поднозов, Яна Кушаковская, Гульназ Насырова, Дмитрий Максимов (II), Гавриил Федотов, Варвара Шалагина, Кирилл Фролов, Сергей Мардарь, Василина Стрельникова, Роман Павлушев, Сергей Малюгов, Андрей Шарков, Мария Павлова, Ксения Асмоловская, Ирина Коваленко (II), Юрий Архангельский
Описание: Как всегда блестяще справляясь со своими профессиональными обязанностями, Мария Швецова должна постоянно помнить и о другой важной части своей жизни. Семья тоже требует её терпения и заботы. Любимая мама и обожаемая супруга, как всегда проводит дома слишком мало времени, чтобы уделять хозяйству достаточно внимания. Поэтому Луганский предлагает Маше взять помощницу по дому, но Швецова не спешит соглашаться на это предложение, тем более, что Злата принимает эту идею в штыки: теперь она сама будет вести дом в отсутствие мамы! Отрадная поддержка со стороны дочери приходится очень кстати, ведь новые очень серьёзные дела не заставляют себя ждать. Швецовой приходится заниматься не только банальными на первый взгляд убийствами, но и расследованиями, в которых замешаны политические мотивы. И самые на первый взгляд просто складывающиеся расследования часто помогают вскрывать удивительные и страшные тайны прошлого. Так, поимка свидетельницы, сбежавшей с места убийства модного ловеласа, позволяет раскрыть семейную тайну и связанную с ней драму, тщательно скрывавшиеся много лет, а убийство общественника Чибисова оборачивается запутанным делом, в котором личные мотивы преступления тесно переплелись с интересами крупного теневого бизнеса. Обнаруженный в кустах возле дороги труп женщины, усыпанный мелкими долларовыми купюрами, наводит оперативников на мысль о простом разбое, но Маша понимает, что в этом случае мотивы убийцы могут быть гораздо глубже... В то же время смерть бомжа, найденного «собачником» на пустыре, оказывается связанной с другим преступлением, произошедшим неподалёку, и общие черты, объединяющие гибель двух совершенно разных людей, оказывается под силу выявить только Швецовой… Впрочем, практика Марии Сергеевны столь насыщена запутанными делами, что для неё самой поиски «двойного дна» в каждом самом мало примечательном расследовании вошли в привычку. Но если бы рядом со Швецовой не было её верных друзей, коллег и старого наставника Ковина, едва ли бы ей удалось добиться столь внушительных успехов. К счастью, на работе Маше почти также хорошо и уютно как дома, и помощницы ей, в сущности, совершенно не нужны...

Все раздачи сериала:
Качество: HDTV 1080i
Формат: MKV
Видео кодек: H.264
Аудио кодек: MP2
Видео: MPEG4 Video (H264) 1920x1080 25fps,7 999 Kbps,bit/pixel 0.143
Аудио: MPEG Audio 48000Hz stereo 192kbps

MI

General
ID : 1 (0x1)
Complete name : H:\Тайны следствия-14\01 серия.ts
Format : MPEG-TS
File size : 2.37 GiB
Duration : 42mn 21s
Overall bit rate mode : Variable
Overall bit rate : 7 999 Kbps
Video
ID : 224 (0xE0)
Menu ID : 1 (0x1)
Format : AVC
Format/Info : Advanced Video Codec
Format profile : [email protected]
Format settings, CABAC : Yes
Format settings, ReFrames : 4 frames
Format settings, GOP : M=4, N=32
Codec ID : 27
Duration : 42mn 21s
Bit rate : 7 410 Kbps
Width : 1 920 pixels
Height : 1 080 pixels
Display aspect ratio : 16:9
Frame rate : 25.000 fps
Color space : YUV
Chroma subsampling : 4:2:0
Bit depth : 8 bits
Scan type : MBAFF
Bits/(Pixel*Frame) : 0.143
Stream size : 2.19 GiB (93%)
Audio
ID : 192 (0xC0)
Menu ID : 1 (0x1)
Format : MPEG Audio
Format version : Version 1
Format profile : Layer 2
Mode : Joint stereo
Mode extension : Intensity Stereo + MS Stereo
Codec ID : 3
Duration : 42mn 21s
Bit rate mode : Constant
Bit rate : 192 Kbps
Channel(s) : 2 channels
Sampling rate : 48.0 KHz
Compression mode : Lossy
Stream size : 58.2 MiB (2%)
Language : English

Скриншоты

Внимание! Раздача ведётся путём добавления новых серий

Внимание! Раздача ведётся путём добавления новых серий; при каждом добавлении создаётся новый торрент.
Чтобы начать докачку новой серии, пользователям необходимо сделать следующее:
1. Остановить скачивание;
2. Удалить старый торрент у себя из клиента (старые серии удалять не надо);
3. Скачать новый торрент и запустить его у себя в клиенте вместо старого, при этом указать клиенту путь в старую папку куда и должно происходить скачивание новых серий. Ваш клиент при этом должен произвести хеширование (проверку) старой папки и будет докачивать только те серии, которых у вас ещё нет. Старые серии при этом не удаляются, а продолжают раздаваться! Eсли вы уже удалили старые серии, то предотвратить повторную закачку старых серий можно, отжав галочку в соответствующих местах при запуске нового торрента.
Добавлены 13-16 серия.

[Цитировать]



Показать сообщения:    

Текущее время: 04-Дек 19:19

Часовой пояс: UTC + 3


Вы не можете начинать темы
Вы не можете отвечать на сообщения
Вы не можете редактировать свои сообщения
Вы не можете удалять свои сообщения
Вы не можете голосовать в опросах
Вы не можете прикреплять файлы к сообщениям
Вы не можете скачивать файлы

!ВНИМАНИЕ!
Сайт не предоставляет электронные версии произведений, а занимается лишь коллекционированием и каталогизацией ссылок, присылаемых и публикуемых на форуме нашими читателями. Если вы являетесь правообладателем какого-либо представленного материала и не желаете, чтобы ссылка на него находилась в нашем каталоге, свяжитесь с нами, и мы незамедлительно удалим ее. Файлы для обмена на трекере предоставлены пользователями сайта, и администрация не несет ответственности за их содержание. Просьба не заливать файлы, защищенные авторскими правами, а также файлы нелегального содержания!