[ Сегодня идет свободное скачивание без начисления Download ]


Статистика раздачи
Нет
 
   
 
Top  
 
 
Братаны 4
Год выпуска: 2014
Производство: Россия, Мостелефильм
Жанр: Боевик, криминал, детектив
Продолжительность: 00:45:00
Субтитры: нет
Режиссёр: Владимир Виноградов (II)
В ролях: Алексей Кравченко, Сергей Селин, Антон Хабаров, Даниил Воробьёв, Дмитрий Назаров, Дарья Калмыкова, Наталья Коренная, Надежда Борисова, Александра Флоринская, Сергей Жарков, Александр Сирин, Александр Терешко, Игорь Филиппов, Евгений Ермаков, Андрей Москвичев, Алина Кизиярова, Борис Каморзин, Сергей Калашников, Валерий Баринов, Владимир Епифанцев, Алексей Колган, Фархад Махмудов, Анастасия Веденская, Венчислав Хотяновский, Александр Арефьев, Олег Соколов (III), Константин Адаев, Сергей Чудаков, Анастасия Сорокина, Константин Столяров, Максим Амельченко, Павел Новиков, Константин Желдин, Виталий Кудрявцев, Тимофей Каратаев, Виктор Потапешкин
Описание: Четверо друзей-десантников, не раз вместе проходивших и огонь и воду, в обыденной жизни не могут найти себя. Бытовые и семейные проблемы, кажется, вот-вот дадут трещину их многолетней дружбе… И только случайная встреча Макара Крылова с особо опасным преступником Юрием Журбиным помогает братанам вновь сплотиться, чтобы помочь попавшему в беду товарищу... По долгу службы Макар пытается задержать Журбина, который числится в федеральном розыске. Ловкий и изворотливый бандит рассчитывает скрыться, берет заложника и в итоге… погибает. Так срывается совместная операция МВД и ФСБ: спецслужбы долгое время вели Юрка, чтобы выйти на его контакты. Начальство Макара, который и не догадывался о слежке за Журбиным, приходит в ярость и переводит полицейского в маленький приморский городок. Отправляясь на место назначения, Макар не подозревает, что на этом череда его неприятностей не заканчивается. Со смертью Юрка он нажил себе непримиримого врага в лице старшего брата погибшего – босса огромного наркокартеля, который посылает в Приморск киллера для ликвидации Крылова.
Все раздачи сериала:

Качество: DVB
Формат: MPEG Video
Видео кодек: MPEG2
Аудио кодек: MPEG1
Видео: MPEG2 Video 1024х576 @ 720x576 (4:3) 25.00fps ~5028 Kbps (0.485 bit/pixel)
Аудио: MPEG Audio 48000Hz 2 channels 192 Кбит/сек
Сторонней рекламы нет!

MI

ОбщееПолное имя                       : F:\Братаны 4 DVB\Братаны 4 13_серия_DVB_by_Wowa63.mpgФормат                           : MPEG-PSРазмер файла                     : 1,71 ГбайтПродолжительность                : 46 м.Общий поток                      : 5326 Кбит/сек
ВидеоИдентификатор : 224 (0xE0)Формат : MPEG VideoВерсия формата : Version 2Профиль формата : [email protected] BVOP формата : ДаПараметр матрицы формата : По умолчаниюПараметры GOP формата : M=3, N=15Продолжительность : 46 м.Вид битрейта : ПеременныйБитрейт : 5028 Кбит/секНоминальный битрейт : 15,0 Мбит/секШирина : 720 пикс.Высота : 576 пикс.Соотношение сторон : 16:9Частота кадров : 25,000 кадр/секСтандарт вещания : PALЦветовое пространство : YUVПодвыборка цветности : 4:2:0Битовая глубина : 8 битТип развёртки : ЧересстрочнаяПорядок развёртки : Верхнее поле первоеМетод сжатия : С потерямиБит/(Пиксели*Кадры) : 0.485Размер потока : 1,62 Гбайт (94%)
АудиоИдентификатор : 192 (0xC0)Формат : MPEG AudioВерсия формата : Version 1Профиль формата : Layer 2Продолжительность : 46 м.Вид битрейта : ПостоянныйБитрейт : 192 Кбит/секКаналы : 2 каналаЧастота : 48,0 КГцМетод сжатия : С потерямиРазмер потока : 63,2 Мбайт (4%)
Запись:
Оформление:
Раздача группы:

Внимание ! Раздача ведётся путём добавления новых серий

Внимание! Раздача ведётся путём добавления новых серий; при каждом добавлении создётся новый торрент. Чтобы начать докачку новой серии, пользователям необходимо сделать следующее:
(1) остановить скачивание,
(2) удалить старый торрент у себя из клиента (старые серии удалять не надо),
(3) скачать новый торрент и запустить его у себя в клиенте вместо старого, при этом указать клиенту путь в старую папку куда и должно происходить скачивание новых серий.
Ваш клиент при этом должен произвести хеширование (проверку) старой папки (если не производит сам - помогите ему сделать это), и будет докачивать только те серии которых у вас ещё нет. Старые серии при этом не удаляются, а продолжают раздаваться!
Eсли вы уже удалили старые серии, то предотвратить повторную закачку старых серий можно, отжав галочку в соответсвующих местах при запуске нового торрента. По возможности, желательно не удалять старые серии как можно дольше чтобы релизёр не столько продолжал раздавать старые серии, а смог сконцентрироваться на новых.
ВНИМАНИЕ! ТОРРЕНТ ПЕРЕЗАЛИТ! ДОБАВЛЕНА 29-ая - 32-ая СЕРИИ!

Скриншоты

[Цитировать]



Показать сообщения:    

Текущее время: 06-Дек 19:04

Часовой пояс: UTC + 3


Вы не можете начинать темы
Вы не можете отвечать на сообщения
Вы не можете редактировать свои сообщения
Вы не можете удалять свои сообщения
Вы не можете голосовать в опросах
Вы не можете прикреплять файлы к сообщениям
Вы не можете скачивать файлы

!ВНИМАНИЕ!
Сайт не предоставляет электронные версии произведений, а занимается лишь коллекционированием и каталогизацией ссылок, присылаемых и публикуемых на форуме нашими читателями. Если вы являетесь правообладателем какого-либо представленного материала и не желаете, чтобы ссылка на него находилась в нашем каталоге, свяжитесь с нами, и мы незамедлительно удалим ее. Файлы для обмена на трекере предоставлены пользователями сайта, и администрация не несет ответственности за их содержание. Просьба не заливать файлы, защищенные авторскими правами, а также файлы нелегального содержания!