[ Сегодня идет свободное скачивание без начисления Download ]


Статистика раздачи
Нет
 
   
 
Top  
 
 
Тайны следствия-14 Год выпуска: 2014
Производство: "Студия "Панорама", "Форвард-Фильм"
Жанр: детектив, драма, криминальный фильм
Продолжительность: 00:42:00 серия
Субтитры: нет
Режиссёр: Ольга Кандидатова
В ролях: Анна Ковальчук, Вячеслав Захаров, Игорь Николаев (II), Александр Новиков (III), Ольга Павловец, Мирослав Малич, Злата Ильченко, Юлия Яковлева, Олег Алмазов, Дмитрий Поднозов, Яна Кушаковская, Гульназ Насырова, Дмитрий Максимов (II), Гавриил Федотов, Варвара Шалагина, Кирилл Фролов, Сергей Мардарь, Василина Стрельникова, Роман Павлушев, Сергей Малюгов, Андрей Шарков, Мария Павлова, Ксения Асмоловская, Ирина Коваленко (II), Юрий Архангельский
Описание: Как всегда блестяще справляясь со своими профессиональными обязанностями, Мария Швецова должна постоянно помнить и о другой важной части своей жизни. Семья тоже требует её терпения и заботы. Любимая мама и обожаемая супруга, как всегда проводит дома слишком мало времени, чтобы уделять хозяйству достаточно внимания. Поэтому Луганский предлагает Маше взять помощницу по дому, но Швецова не спешит соглашаться на это предложение, тем более, что Злата принимает эту идею в штыки: теперь она сама будет вести дом в отсутствие мамы! Отрадная поддержка со стороны дочери приходится очень кстати, ведь новые очень серьёзные дела не заставляют себя ждать. Швецовой приходится заниматься не только банальными на первый взгляд убийствами, но и расследованиями, в которых замешаны политические мотивы. И самые на первый взгляд просто складывающиеся расследования часто помогают вскрывать удивительные и страшные тайны прошлого. Так, поимка свидетельницы, сбежавшей с места убийства модного ловеласа, позволяет раскрыть семейную тайну и связанную с ней драму, тщательно скрывавшиеся много лет, а убийство общественника Чибисова оборачивается запутанным делом, в котором личные мотивы преступления тесно переплелись с интересами крупного теневого бизнеса. Обнаруженный в кустах возле дороги труп женщины, усыпанный мелкими долларовыми купюрами, наводит оперативников на мысль о простом разбое, но Маша понимает, что в этом случае мотивы убийцы могут быть гораздо глубже... В то же время смерть бомжа, найденного «собачником» на пустыре, оказывается связанной с другим преступлением, произошедшим неподалёку, и общие черты, объединяющие гибель двух совершенно разных людей, оказывается под силу выявить только Швецовой… Впрочем, практика Марии Сергеевны столь насыщена запутанными делами, что для неё самой поиски «двойного дна» в каждом самом мало примечательном расследовании вошли в привычку. Но если бы рядом со Швецовой не было её верных друзей, коллег и старого наставника Ковина, едва ли бы ей удалось добиться столь внушительных успехов. К счастью, на работе Маше почти также хорошо и уютно как дома, и помощницы ей, в сущности, совершенно не нужны...
Доп. информация: Релиз группа
Сэмпл
Качество: HDTVRip
Формат: AVI
Видео кодек: XviD
Аудио кодек: AC3
Видео: 720x400 (1.80:1), 25 fps, XviD build 73 ~1648 kbps avg, 0.22 bit/pixel
Аудио: 48 kHz, AC3 Dolby Digital, 2/0 (L,R) ch, ~192.00 kbps avg

MI

General
Complete name : Y:\раздачи\Tayny.sledstviya-14.2014.XviD.HDTVRip.Files-x&.RG.Russkie.serialy\01.Tayny.sledstviya-14.2014.XviD.HDTVRip.Files-x&.RG.Russkie.serialy.avi
Format : AVI
Format/Info : Audio Video Interleave
File size : 550 MiB
Duration : 42mn 26s
Overall bit rate : 1 813 Kbps
Writing application : Lavf53.19.0
Video
ID : 0
Format : MPEG-4 Visual
Format profile : Advanced Simple@L5
Format settings, BVOP : 1
Format settings, QPel : No
Format settings, GMC : No warppoints
Format settings, Matrix : Custom
Codec ID : XVID
Codec ID/Hint : XviD
Duration : 42mn 26s
Bit rate : 1 610 Kbps
Width : 720 pixels
Height : 400 pixels
Display aspect ratio : 16:9
Frame rate : 25.000 fps
Color space : YUV
Chroma subsampling : 4:2:0
Bit depth : 8 bits
Scan type : Progressive
Compression mode : Lossy
Bits/(Pixel*Frame) : 0.224
Stream size : 489 MiB (89%)
Writing library : XviD 73
Audio
ID : 1
Format : AC-3
Format/Info : Audio Coding 3
Mode extension : CM (complete main)
Format settings, Endianness : Big
Codec ID : 2000
Duration : 42mn 26s
Bit rate mode : Constant
Bit rate : 192 Kbps
Channel(s) : 2 channels
Channel positions : Front: L R
Sampling rate : 48.0 KHz
Bit depth : 16 bits
Compression mode : Lossy
Stream size : 58.3 MiB (11%)
Alignment : Aligned on interleaves
Interleave, duration : 32 ms (0.80 video frame)

Внимание! Раздача ведётся путём добавления новых серий!

Внимание! Раздача ведётся путём добавления новых серий
Внимание! Раздача ведётся путём добавления новых серий; при каждом добавлении создётся новый торрент.
Чтобы начать докачку новой серии, пользователям необходимо сделать следующее:
1) остановить скачивание
2) удалить старый торрент у себя из клиента (старые серии удалять не надо)
3) скачать новый торрент и запустить его у себя в клиенте вместо старого, при этом указать клиенту путь в старую папку куда и должно происходить скачивание новых серий.
Ваш клиент при этом должен произвести хеширование (проверку) старой папки (если не производит сам - помогите ему сделать это), и будет докачивать только те серии которых у вас ещё нет. Старые серии при этом не удаляются, а продолжают раздаваться!
Eсли вы уже удалили старые серии, то предотвратить повторную закачку старых серий можно, отжав галочку в соответствовавших местах при запуске нового торрента.

Скриншоты

первые 8 серий перекодированы из другого источника

[Цитировать]



Показать сообщения:    

Текущее время: 08-Дек 17:15

Часовой пояс: UTC + 3


Вы не можете начинать темы
Вы не можете отвечать на сообщения
Вы не можете редактировать свои сообщения
Вы не можете удалять свои сообщения
Вы не можете голосовать в опросах
Вы не можете прикреплять файлы к сообщениям
Вы не можете скачивать файлы

!ВНИМАНИЕ!
Сайт не предоставляет электронные версии произведений, а занимается лишь коллекционированием и каталогизацией ссылок, присылаемых и публикуемых на форуме нашими читателями. Если вы являетесь правообладателем какого-либо представленного материала и не желаете, чтобы ссылка на него находилась в нашем каталоге, свяжитесь с нами, и мы незамедлительно удалим ее. Файлы для обмена на трекере предоставлены пользователями сайта, и администрация не несет ответственности за их содержание. Просьба не заливать файлы, защищенные авторскими правами, а также файлы нелегального содержания!