[ Сегодня идет свободное скачивание без начисления Download ]


Статистика раздачи
Нет
 
   
 
Top  
 
 
Временщик
Год выпуска: 2014
Производство: "Кинотрадиция"
Жанр: Приключения
Продолжительность: ~00:45:00
Субтитры: нет
Режиссёр: Юрий Музыка
В ролях: Тимофей Каратаев, Наталья Скоморохова, Антон Шурцов, Михаил Ремизов, Даниил Дунц, Сергей Тезов, Алексей Гришин, Дмитрий Зеничев, Павел Ильин, Екатерина Крупенина, Андрей Межулис, Юрий Уткин, Сергей Иванюк, Юрий Маслак, Денис Дружинин, Вячеслав Ганенко, Александр Числов
Описание:Аспиранту исторического факультета МГУ Павлу Артемьеву, специалисту по теории энигматических (окутанных тайной) событий мировой истории и его бесшабашному другу Гарику Старицкому попадает в руки уникальный документа – «Календарь Брюса», открывающий тайну некого «портала времени», через который наши герои попадают в прошлое России, и становятся непосредственными участниками именно тех событий, разгадкой которых Павел занимался в тишине собственного кабинета.
Этот необычный артефакт является так же главной целью преследователя наших героев во времени барона Генриха фон Шкилле, ученика Брюса, пытавшегося, путем интриги уничтожить своего учителя и завладеть Книгой Судьбы, так же изобретенной Брюсом, в которой заключена тайна бессмертия. Брюс уничтожает книгу на глазах изумленного ученика, и теперь последний пытается добыть «календарь», что бы вернутся в прошлое, предотвратить уничтожение, и стать владельцем тайны вечной жизни.
Попытка выбраться из временной петли бросает наших героев из одного исторического периода прошлого в другой.
Вместе с Павлом и Гариком, зритель переносится из екатерининской эпохи, где им приходится помогать немецкой принцессе завоевать право на Российский престол.
Попав в Москву 1915 года, они становятся свидетелями и участниками сложной политической и уголовной интриги, связанной с похищением чертежей у изобретателя первого российского танка Александра Пороховщикова.
Но на этом приключения отважного историка и его друга не заканчиваются, и друзья переносятся в грозные времена революции и гражданской войны, где делают попытку спасти легендарного комдива Василия Чапаева.
И потом портал перебрасывает их 1943 год, в блокадный Ленинград, где вместе со специальным диверсионным отрядом, Павел и Гарик пытаются спасти «Янтарную комнату».
Невероятными усилиями нашим героям удается вырваться из этой петли Времени и вернутся в вожделенное настоящее. Но игра со временем штука только опасная, но и весьма непредсказуемая. И вместо XXI века, искатели приключений оказываются в конце XX... Так что получается что приключения, как и время бесконечны…
Все раздачи сериала:

Качество: DVB
Формат: MPEG 2
Видео кодек: MPEG 2
Аудио кодек: MPEG 1
Видео: 768х576 @ 720x576 (4:3) 25.00fps ~5666 Kbps (0.547 bit/pixel)
Аудио: MPEG Audio 48000Hz 2 channels 192 Кбит/сек
Сторонней рекламы нет!

MediaInfo

ОбщееПолное имя                       : F:\Временщик DVB\Временщик 01_серия_DVB_by_Wowa63_&_Серый1779.mpgФормат                           : MPEG-PSРазмер файла                     : 1,76 ГбайтПродолжительность                : 42 м.Общий поток                      : 5977 Кбит/сек
ВидеоИдентификатор : 224 (0xE0)Формат : MPEG VideoВерсия формата : Version 2Профиль формата : Main@MainПараметр BVOP формата : ДаПараметр матрицы формата : По умолчаниюПродолжительность : 42 м.Вид битрейта : ПеременныйБитрейт : 5666 Кбит/секНоминальный битрейт : 7000 Кбит/секШирина : 720 пикс.Высота : 576 пикс.Соотношение сторон : 4:3Частота кадров : 25,000 кадр/секСтандарт вещания : PALЦветовое пространство : YUVПодвыборка цветности : 4:2:0Битовая глубина : 8 битТип развёртки : ПрогрессивнаяПорядок развёртки : Нижнее поле первоеМетод сжатия : С потерямиБит/(Пиксели*Кадры) : 0.547Размер потока : 1,67 Гбайт (95%)
АудиоИдентификатор : 192 (0xC0)Формат : MPEG AudioВерсия формата : Version 1Профиль формата : Layer 2Продолжительность : 42 м.Вид битрейта : ПостоянныйБитрейт : 192 Кбит/секКаналы : 2 каналаЧастота : 48,0 КГцМетод сжатия : С потерямиРазмер потока : 58,0 Мбайт (3%)
Запись:
Оформление:
Раздача группы:
Отдельная громадная благодарность Media-Art-Club за созданный постер к раздаче.

Внимание ! Раздача ведётся путём добавления новых серий

Внимание! Раздача ведётся путём добавления новых серий; при каждом добавлении создётся новый торрент. Чтобы начать докачку новой серии, пользователям необходимо сделать следующее:
(1) остановить скачивание,
(2) удалить старый торрент у себя из клиента (старые серии удалять не надо),
(3) скачать новый торрент и запустить его у себя в клиенте вместо старого, при этом указать клиенту путь в старую папку куда и должно происходить скачивание новых серий.
Ваш клиент при этом должен произвести хеширование (проверку) старой папки (если не производит сам - помогите ему сделать это), и будет докачивать только те серии которых у вас ещё нет. Старые серии при этом не удаляются, а продолжают раздаваться!
Eсли вы уже удалили старые серии, то предотвратить повторную закачку старых серий можно, отжав галочку в соответсвующих местах при запуске нового торрента. По возможности, желательно не удалять старые серии как можно дольше чтобы релизёр не столько продолжал раздавать старые серии, а смог сконцентрироваться на новых.
ВНИМАНИЕ! ТОРРЕНТ ПЕРЕЗАЛИТ! ДОБАВЛЕНА 5-ая - 8-ая СЕРИИ!

Скриншоты

[Цитировать]



Показать сообщения:    

Текущее время: 09-Дек 10:45

Часовой пояс: UTC + 3


Вы не можете начинать темы
Вы не можете отвечать на сообщения
Вы не можете редактировать свои сообщения
Вы не можете удалять свои сообщения
Вы не можете голосовать в опросах
Вы не можете прикреплять файлы к сообщениям
Вы не можете скачивать файлы

!ВНИМАНИЕ!
Сайт не предоставляет электронные версии произведений, а занимается лишь коллекционированием и каталогизацией ссылок, присылаемых и публикуемых на форуме нашими читателями. Если вы являетесь правообладателем какого-либо представленного материала и не желаете, чтобы ссылка на него находилась в нашем каталоге, свяжитесь с нами, и мы незамедлительно удалим ее. Файлы для обмена на трекере предоставлены пользователями сайта, и администрация не несет ответственности за их содержание. Просьба не заливать файлы, защищенные авторскими правами, а также файлы нелегального содержания!