[ Сегодня идет свободное скачивание без начисления Download ]


Статистика раздачи
Нет
 
   
 
Top  
 
 
Мaжoр
Год выпуска: 2014
Производство: Продюсерский центр "Среда"
Жанр: Детектив
Продолжительность: ~0:52:00 серия
Субтитры: нет
Режиссёр: Кoнстантин Стaтский
В ролях: Павел Прилучный, Карина Разумовская, Дмитрий Шевченко, Денис Шведов, Александр Обласов, Никита Панфилов, Анна Андрусенко, Остап Ступка, Александр Дьяченко, Игорь Жижикин, Заза Чантурия, Дмитрий Гаврилов (II), Марина Дьяконенко, Алла Мартынюк, Саак Дурян
Описание: Главный герой – Игорь Соколовский – сын высокопоставленного и богатого человека. Имея юридическое образование, Игорь не спешит найти ему применение, прожигая жизнь в ночных клубах с друзьями. Однажды, вступившись за товарища, Игорь ввязывается в драку с полицейским. Замяв историю, отец лишает Игоря всего, отправляя работать в то самое отделение полиции. Поначалу возненавидев свою новую жизнь, Игорь постепенно становится мужчиной, встречает любовь и задаётся целью найти убийцу матери...
Все раздачи сериала:

Качество: HDTV 1080i
Формат: TS
Видео кодек: H.264
Аудио кодек: AC3
Видео: MPEG4 Video (H264) 1920x1080, ~ 6766 Кбит/сек, 25.00fps 0.131 bit/pixel
Аудио: AC3, 6 канала, 48,0 КГц, ~384 kbps
Сторонней рекламы нет!

MediaInfo

ОбщееИдентификатор                            : 1 (0x1)Полное имя                               : D:\Запись\Mazhor.HDTV(1080i).MediaClub\Mazhor.01.HDTV(1080i).MediaClub.tsФормат                                   : MPEG-TSРазмер файла                             : 2,75 ГбайтПродолжительность                        : 52 м.Режим общего битрейта                    : ПеременныйОбщий поток                              : 7526 Кбит/сек
ВидеоИдентификатор : 4121 (0x1019)Идентификатор меню : 1 (0x1)Формат : AVCФормат/Информация : Advanced Video CodecПрофиль формата : Main@L4.0Параметр CABAC формата : ДаПараметр ReFrames формата : 3 кадраПараметр GOP формата : M=4, N=32Идентификатор кодека : 27Продолжительность : 52 м.Битрейт : 6766 Кбит/секШирина : 1920 пикселейВысота : 1080 пикселейСоотношение сторон : 16:9Частота кадров : 25,000 кадров/секСтандарт вещания : ComponentЦветовое пространство : YUVСубдискретизация насыщенности : 4:2:0Битовая глубина : 8 битТип развёртки : ЧересстрочнаяПорядок развёртки : Верхнее поле первоеБит/(Пиксели*Кадры) : 0.131Размер потока : 2,47 Гбайт (90%)Основные цвета : BT.709Характеристики трансфера : BT.709Коэффициенты матрицы : BT.709
АудиоИдентификатор : 4125 (0x101D)Идентификатор меню : 1 (0x1)Формат : AC-3Формат/Информация : Audio Coding 3Расширение режима : CM (complete main)Параметр Endianness формата : BigИдентификатор кодека : 6Продолжительность : 52 м.Вид битрейта : ПостоянныйБитрейт : 384 Кбит/секКаналы : 6 каналовРасположение каналов : Front: L C R, Side: L R, LFEЧастота : 48,0 КГцБитовая глубина : 16 битМетод сжатия : С потерямиРазмер потока : 144 Мбайт (5%)Язык : Russian
ОбщееИдентификатор : 1 (0x1)Полное имя : D:\Запись\Mazhor.HDTV(1080i).MediaClub\Mazhor.02.HDTV(1080i).MediaClub.tsФормат : MPEG-TSРазмер файла : 2,72 ГбайтПродолжительность : 52 м.Режим общего битрейта : ПеременныйОбщий поток : 7461 Кбит/сек
ВидеоИдентификатор : 4121 (0x1019)Идентификатор меню : 1 (0x1)Формат : AVCФормат/Информация : Advanced Video CodecПрофиль формата : Main@L4.0Параметр CABAC формата : ДаПараметр ReFrames формата : 3 кадраИдентификатор кодека : 27Продолжительность : 52 м.Битрейт : 6705 Кбит/секШирина : 1920 пикселейВысота : 1080 пикселейСоотношение сторон : 16:9Частота кадров : 25,000 кадров/секСтандарт вещания : ComponentЦветовое пространство : YUVСубдискретизация насыщенности : 4:2:0Битовая глубина : 8 битТип развёртки : ЧересстрочнаяПорядок развёртки : Верхнее поле первоеБит/(Пиксели*Кадры) : 0.129Размер потока : 2,45 Гбайт (90%)Основные цвета : BT.709Характеристики трансфера : BT.709Коэффициенты матрицы : BT.709
АудиоИдентификатор : 4125 (0x101D)Идентификатор меню : 1 (0x1)Формат : AC-3Формат/Информация : Audio Coding 3Расширение режима : CM (complete main)Параметр Endianness формата : BigИдентификатор кодека : 6Продолжительность : 52 м.Вид битрейта : ПостоянныйБитрейт : 384 Кбит/секКаналы : 6 каналовРасположение каналов : Front: L C R, Side: L R, LFEЧастота : 48,0 КГцБитовая глубина : 16 битМетод сжатия : С потерямиРазмер потока : 144 Мбайт (5%)Язык : Russian
Раздача группы:
Отдельное спасибо olegka7373 за предоставление материала.
Релиз:

Внимание ! Раздача ведётся путём добавления новых серий

Внимание! Раздача ведётся путём добавления новых серий; при каждом добавлении создётся новый торрент. Чтобы начать докачку новой серии, пользователям необходимо сделать следующее:
(1) остановить скачивание,
(2) удалить старый торрент у себя из клиента (старые серии удалять не надо),
(3) скачать новый торрент и запустить его у себя в клиенте вместо старого, при этом указать клиенту путь в старую папку куда и должно происходить скачивание новых серий.
Ваш клиент при этом должен произвести хеширование (проверку) старой папки (если не производит сам - помогите ему сделать это), и будет докачивать только те серии которых у вас ещё нет. Старые серии при этом не удаляются, а продолжают раздаваться!
Eсли вы уже удалили старые серии, то предотвратить повторную закачку старых серий можно, отжав галочку в соответсвующих местах при запуске нового торрента. По возможности, желательно не удалять старые серии как можно дольше чтобы релизёр не столько продолжал раздавать старые серии, а смог сконцентрироваться на новых.
ВНИМАНИЕ! ТОРРЕНТ ПЕРЕЗАЛИТ! ДОБАВЛЕНА 12-ая СЕРИИ!

Скриншоты

[Цитировать]



Показать сообщения:    

Текущее время: 02-Дек 22:56

Часовой пояс: UTC + 3


Вы не можете начинать темы
Вы не можете отвечать на сообщения
Вы не можете редактировать свои сообщения
Вы не можете удалять свои сообщения
Вы не можете голосовать в опросах
Вы не можете прикреплять файлы к сообщениям
Вы не можете скачивать файлы

!ВНИМАНИЕ!
Сайт не предоставляет электронные версии произведений, а занимается лишь коллекционированием и каталогизацией ссылок, присылаемых и публикуемых на форуме нашими читателями. Если вы являетесь правообладателем какого-либо представленного материала и не желаете, чтобы ссылка на него находилась в нашем каталоге, свяжитесь с нами, и мы незамедлительно удалим ее. Файлы для обмена на трекере предоставлены пользователями сайта, и администрация не несет ответственности за их содержание. Просьба не заливать файлы, защищенные авторскими правами, а также файлы нелегального содержания!