[ Сегодня идет свободное скачивание без начисления Download ]


Статистика раздачи
Нет
 
   
 
Top  
 
 
Мажор
Год выпуска: 2014
Производство: Продюсерский центр "Среда"
Жанр: Детектив
Продолжительность: ~0:52:00 серия
Субтитры: нет
Режиссёр: Константин Статский
В ролях: Павел Прилучный, Карина Разумовская, Дмитрий Шевченко, Денис Шведов, Александр Обласов, Никита Панфилов, Анна Андрусенко, Остап Ступка, Александр Дьяченко, Игорь Жижикин, Заза Чантурия, Дмитрий Гаврилов (II), Марина Дьяконенко, Алла Мартынюк, Саак Дурян
Описание: Главный герой – Игорь Соколовский – сын высокопоставленного и богатого человека. Имея юридическое образование, Игорь не спешит найти ему применение, прожигая жизнь в ночных клубах с друзьями. Однажды, вступившись за товарища, Игорь ввязывается в драку с полицейским. Замяв историю, отец лишает Игоря всего, отправляя работать в то самое отделение полиции. Поначалу возненавидев свою новую жизнь, Игорь постепенно становится мужчиной, встречает любовь и задаётся целью найти убийцу матери...
Все раздачи сериала:

Качество: DVB
Формат: TS
Видео кодек: MPEG2
Аудио кодек: MPEG1
Видео: MPEG2 Video 1024х576 @ 720x576 (4:3) 25.00fps ~2800 Kbps (0.27 bit/pixel)
Аудио: MPEG Audio 48000Hz 2 channels 192 Кбит/сек
Сторонней рекламы нет!

MediaInfo

ОбщееИдентификатор                    : 1 (0x1)Полное имя                       : F:\Mazhor.2014.DVB.Files-x\01.Mazhor.2014.DVB.Files-x.tsФормат                           : MPEG-TSРазмер файла                     : 1,16 ГбайтПродолжительность                : 52 м.Общий поток                      : 3181 Кбит/секВидеоИдентификатор                    : 69 (0x45)Идентификатор меню               : 1 (0x1)Формат                           : AVCФормат/Информация                : Advanced Video CodecПрофиль формата                  : Main@L3.1Параметр CABAC формата           : ДаПараметр ReFrames формата        : 3 кадраПараметры GOP формата            : M=2, N=33Идентификатор кодека             : 27Продолжительность                : 52 м.Вид битрейта                     : ПостоянныйБитрейт                          : 2800 Кбит/секШирина                           : 720 пикс.Высота                           : 576 пикс.Соотношение сторон               : 16:9Частота кадров                   : 25,000 кадр/секСтандарт вещания                 : PALЦветовое пространство            : YUVПодвыборка цветности             : 4:2:0Битовая глубина                  : 8 битТип развёртки                    : ПрогрессивнаяБит/(Пиксели*Кадры)              : 0.270Размер потока                    : 1,03 Гбайт (89%)АудиоИдентификатор                    : 68 (0x44)Идентификатор меню               : 1 (0x1)Формат                           : MPEG AudioВерсия формата                   : Version 1Профиль формата                  : Layer 2Идентификатор кодека             : 3Продолжительность                : 52 м.Вид битрейта                     : ПостоянныйБитрейт                          : 192 Кбит/секКаналы                           : 2 каналаЧастота                          : 48,0 КГцМетод сжатия                     : С потерямиЗадержка видео                   : 40 мс.Размер потока                    : 71,8 Мбайт (6%)Язык                             : English
Раздача группы:
Оформление:
Запись:

Внимание ! Раздача ведётся путём добавления новых серий

Внимание! Раздача ведётся путём добавления новых серий; при каждом добавлении создётся новый торрент. Чтобы начать докачку новой серии, пользователям необходимо сделать следующее:
(1) остановить скачивание,
(2) удалить старый торрент у себя из клиента (старые серии удалять не надо),
(3) скачать новый торрент и запустить его у себя в клиенте вместо старого, при этом указать клиенту путь в старую папку куда и должно происходить скачивание новых серий.
Ваш клиент при этом должен произвести хеширование (проверку) старой папки (если не производит сам - помогите ему сделать это), и будет докачивать только те серии которых у вас ещё нет. Старые серии при этом не удаляются, а продолжают раздаваться!
Eсли вы уже удалили старые серии, то предотвратить повторную закачку старых серий можно, отжав галочку в соответсвующих местах при запуске нового торрента. По возможности, желательно не удалять старые серии как можно дольше чтобы релизёр не столько продолжал раздавать старые серии, а смог сконцентрироваться на новых.
ВНИМАНИЕ! ТОРРЕНТ ПЕРЕЗАЛИТ! ДОБАВЛЕНА 9-ая - 12-ая СЕРИИ!

Скриншоты

[Цитировать]



Показать сообщения:    

Текущее время: 11-Дек 03:13

Часовой пояс: UTC + 3


Вы не можете начинать темы
Вы не можете отвечать на сообщения
Вы не можете редактировать свои сообщения
Вы не можете удалять свои сообщения
Вы не можете голосовать в опросах
Вы не можете прикреплять файлы к сообщениям
Вы не можете скачивать файлы

!ВНИМАНИЕ!
Сайт не предоставляет электронные версии произведений, а занимается лишь коллекционированием и каталогизацией ссылок, присылаемых и публикуемых на форуме нашими читателями. Если вы являетесь правообладателем какого-либо представленного материала и не желаете, чтобы ссылка на него находилась в нашем каталоге, свяжитесь с нами, и мы незамедлительно удалим ее. Файлы для обмена на трекере предоставлены пользователями сайта, и администрация не несет ответственности за их содержание. Просьба не заливать файлы, защищенные авторскими правами, а также файлы нелегального содержания!