[ Сегодня идет свободное скачивание без начисления Download ]


Статистика раздачи
Нет
 
   
 
Top  
 
 
Мажор
Год выпуска: 2014
Производство: Продюсерский центр "Среда"
Жанр: Детектив
Продолжительность: ~0:52:00 серия
Субтитры: нет
Режиссёр: Константин Статский
В ролях: Павел Прилучный, Карина Разумовская, Дмитрий Шевченко, Денис Шведов, Александр Обласов, Никита Панфилов, Анна Андрусенко, Остап Ступка, Александр Дьяченко, Игорь Жижикин, Заза Чантурия, Дмитрий Гаврилов (II), Марина Дьяконенко, Алла Мартынюк, Саак Дурян
Описание: Главный герой – Игорь Соколовский – сын высокопоставленного и богатого человека. Имея юридическое образование, Игорь не спешит найти ему применение, прожигая жизнь в ночных клубах с друзьями. Однажды, вступившись за товарища, Игорь ввязывается в драку с полицейским. Замяв историю, отец лишает Игоря всего, отправляя работать в то самое отделение полиции. Поначалу возненавидев свою новую жизнь, Игорь постепенно становится мужчиной, встречает любовь и задаётся целью найти убийцу матери...
Все раздачи сериала:

Качество: HDTVRip-AVC
Формат: MKV
Видео кодек: H.264
Аудио кодек: AC-3
Видео: MPEG4 Video (H264) 1024x576, ~ 2000 kbps, 25.00fps Бит/(Пиксели*Кадры): 0.136
Аудио: AC-3, 6 канала, 48.0 КГц, ~384 kbps, VBR
Сторонней рекламы нет!

MediaInfo

ОбщееУникальный идентификатор         : 221070535666253647221563060495826003358 (0xA650A2EE224DA4DBBED6DC1A3D77A59E)Полное имя                       : F:\Мажор HDTVRip AVC\Мажор 01_серия_HDTVRip_AVC_by_Серый1779.mkvФормат                           : MatroskaРазмер файла                     : 892 МбайтПродолжительность                : 52 м.Общий поток                      : 2386 Кбит/секДата кодирования                 : UTC 2014-12-17 15:27:42Программа кодирования            : mkvmerge v6.1.0 ('Old Devil') built on Mar  4 2013 09:10:42Библиотека кодирования           : libebml v1.3.0 + libmatroska v1.4.0ВидеоИдентификатор                    : 1Формат                           : AVCФормат/Информация                : Advanced Video CodecПрофиль формата                  : [email protected] CABAC формата           : ДаПараметр ReFrames формата        : 9 кадровИдентификатор кодека             : V_MPEG4/ISO/AVCПродолжительность                : 52 м.Битрейт                          : 2000 Кбит/секШирина                           : 1024 пикс.Высота                           : 576 пикс.Соотношение сторон               : 16:9Частота кадров                   : 25,000 кадр/секЦветовое пространство            : YUVПодвыборка цветности             : 4:2:0Битовая глубина                  : 8 битТип развёртки                    : ПрогрессивнаяБит/(Пиксели*Кадры)              : 0.136Размер потока                    : 731 Мбайт (82%)Библиотека кодирования           : x264 core 130 r2273 b3065e6Настройки программы              : cabac=1 / ref=9 / deblock=1:-2:-1 / analyse=0x3:0x133 / me=umh / subme=9 / psy=1 / psy_rd=1.00:0.15 / mixed_ref=1 / me_range=32 / chroma_me=1 / trellis=2 / 8x8dct=1 / cqm=0 / deadzone=21,11 / fast_pskip=0 / chroma_qp_offset=-3 / threads=3 / lookahead_threads=1 / sliced_threads=0 / nr=0 / decimate=1 / interlaced=0 / bluray_compat=0 / constrained_intra=0 / bframes=9 / b_pyramid=2 / b_adapt=2 / b_bias=0 / direct=1 / weightb=1 / open_gop=0 / weightp=2 / keyint=250 / keyint_min=25 / scenecut=40 / intra_refresh=0 / rc=2pass / mbtree=0 / bitrate=2000 / ratetol=1.0 / qcomp=0.60 / qpmin=0 / qpmax=69 / qpstep=4 / cplxblur=20.0 / qblur=0.5 / ip_ratio=1.40 / pb_ratio=1.30 / aq=2:1.00Основные цвета                   : BT.709-5, BT.1361, IEC 61966-2-4, SMPTE RP177Характеристики трансфера         : BT.709-5, BT.1361Коэффициенты матрицы             : BT.709-5, BT.1361, IEC 61966-2-4 709, SMPTE RP177АудиоИдентификатор                    : 2Формат                           : AC-3Формат/Информация                : Audio Coding 3Расширение режима                : CM (complete main)Идентификатор кодека             : A_AC3Продолжительность                : 52 м.Вид битрейта                     : ПостоянныйБитрейт                          : 384 Кбит/секКаналы                           : 6 каналовРасположение каналов             : Front: L C R, Side: L R, LFEЧастота                          : 48,0 КГцБитовая глубина                  : 16 битМетод сжатия                     : С потерямиРазмер потока                    : 144 Мбайт (16%)
Рип:
Отдельное спасибо olegka7373 за предоставление исходника.

Внимание ! Раздача ведётся путём добавления новых серий

Внимание! Раздача ведётся путём добавления новых серий; при каждом добавлении создётся новый торрент. Чтобы начать докачку новой серии, пользователям необходимо сделать следующее:
(1) остановить скачивание,
(2) удалить старый торрент у себя из клиента (старые серии удалять не надо),
(3) скачать новый торрент и запустить его у себя в клиенте вместо старого, при этом указать клиенту путь в старую папку куда и должно происходить скачивание новых серий.
Ваш клиент при этом должен произвести хеширование (проверку) старой папки (если не производит сам - помогите ему сделать это), и будет докачивать только те серии которых у вас ещё нет. Старые серии при этом не удаляются, а продолжают раздаваться!
Eсли вы уже удалили старые серии, то предотвратить повторную закачку старых серий можно, отжав галочку в соответсвующих местах при запуске нового торрента. По возможности, желательно не удалять старые серии как можно дольше чтобы релизёр не столько продолжал раздавать старые серии, а смог сконцентрироваться на новых.
ВНИМАНИЕ! ТОРРЕНТ ПЕРЕЗАЛИТ! ДОБАВЛЕНА 12-ая СЕРИИ!

Скриншоты

[Цитировать]



Показать сообщения:    

Текущее время: 06-Дек 13:10

Часовой пояс: UTC + 3


Вы не можете начинать темы
Вы не можете отвечать на сообщения
Вы не можете редактировать свои сообщения
Вы не можете удалять свои сообщения
Вы не можете голосовать в опросах
Вы не можете прикреплять файлы к сообщениям
Вы не можете скачивать файлы

!ВНИМАНИЕ!
Сайт не предоставляет электронные версии произведений, а занимается лишь коллекционированием и каталогизацией ссылок, присылаемых и публикуемых на форуме нашими читателями. Если вы являетесь правообладателем какого-либо представленного материала и не желаете, чтобы ссылка на него находилась в нашем каталоге, свяжитесь с нами, и мы незамедлительно удалим ее. Файлы для обмена на трекере предоставлены пользователями сайта, и администрация не несет ответственности за их содержание. Просьба не заливать файлы, защищенные авторскими правами, а также файлы нелегального содержания!