[ Сегодня идет свободное скачивание без начисления Download ]


Статистика раздачи
Скачал: [ 1 ]
 
   
 
Top  
 
 
Временщик
Год выпуска: 2014
Производство: "Кинотрадиция"
Жанр: Приключения
Продолжительность: ~00:45:00
Субтитры: нет
Режиссёр: Юрий Музыка
В ролях: Тимофей Каратаев, Наталья Скоморохова, Антон Шурцов, Михаил Ремизов, Даниил Дунц, Сергей Тезов, Алексей Гришин, Дмитрий Зеничев, Павел Ильин, Екатерина Крупенина, Андрей Межулис, Юрий Уткин, Сергей Иванюк, Юрий Маслак, Денис Дружинин, Вячеслав Ганенко, Александр Числов
Описание:Аспиранту исторического факультета МГУ Павлу Артемьеву, специалисту по теории энигматических (окутанных тайной) событий мировой истории и его бесшабашному другу Гарику Старицкому попадает в руки уникальный документа – «Календарь Брюса», открывающий тайну некого «портала времени», через который наши герои попадают в прошлое России, и становятся непосредственными участниками именно тех событий, разгадкой которых Павел занимался в тишине собственного кабинета.
Этот необычный артефакт является так же главной целью преследователя наших героев во времени барона Генриха фон Шкилле, ученика Брюса, пытавшегося, путем интриги уничтожить своего учителя и завладеть Книгой Судьбы, так же изобретенной Брюсом, в которой заключена тайна бессмертия. Брюс уничтожает книгу на глазах изумленного ученика, и теперь последний пытается добыть «календарь», что бы вернутся в прошлое, предотвратить уничтожение, и стать владельцем тайны вечной жизни.
Попытка выбраться из временной петли бросает наших героев из одного исторического периода прошлого в другой.
Вместе с Павлом и Гариком, зритель переносится из екатерининской эпохи, где им приходится помогать немецкой принцессе завоевать право на Российский престол.
Попав в Москву 1915 года, они становятся свидетелями и участниками сложной политической и уголовной интриги, связанной с похищением чертежей у изобретателя первого российского танка Александра Пороховщикова.
Но на этом приключения отважного историка и его друга не заканчиваются, и друзья переносятся в грозные времена революции и гражданской войны, где делают попытку спасти легендарного комдива Василия Чапаева.
И потом портал перебрасывает их 1943 год, в блокадный Ленинград, где вместе со специальным диверсионным отрядом, Павел и Гарик пытаются спасти «Янтарную комнату».
Невероятными усилиями нашим героям удается вырваться из этой петли Времени и вернутся в вожделенное настоящее. Но игра со временем штука только опасная, но и весьма непредсказуемая. И вместо XXI века, искатели приключений оказываются в конце XX... Так что получается что приключения, как и время бесконечны…
Все раздачи сериала:

Качество: SATRip
Формат: AVI
Видео кодек: XviD
Аудио кодек: АС-3
Видео: 720x400 (1.80:1), 25 fps, XviD build 50 ~1600 kbps avg, 0.22 bit/pixel
Аудио: 48 kHz, AC3 Dolby Digital, 2/0 (L,R) ch, ~192.00 kbps avg
Сторонней рекламы нет!

MediaInfo

GeneralComplete name               : D:\Vytas\Video\Vremenchik.2014.SATRip.Files-x.GeneralFilm\01.Vremenchik.2014.SATRip.Files-x.GeneralFilm.aviFormat                      : AVIFormat/Info                 : Audio Video InterleaveFile size                   : 550 MiBDuration                    : 42mn 15sOverall bit rate            : 1 818 KbpsWriting application         : VirtualDubModRus 1.5.10.2 (build 2542/release)Writing library             : VirtualDubMod build 2542/release
VideoID : 0Format : MPEG-4 VisualFormat profile : Advanced Simple@L5Format settings, BVOP : 1Format settings, QPel : NoFormat settings, GMC : No warppointsFormat settings, Matrix : CustomCodec ID : XVIDCodec ID/Hint : XviDDuration : 42mn 15sBit rate : 1 616 KbpsWidth : 720 pixelsHeight : 400 pixelsDisplay aspect ratio : 16:9Frame rate : 25.000 fpsColor space : YUVChroma subsampling : 4:2:0Bit depth : 8 bitsScan type : ProgressiveCompression mode : LossyBits/(Pixel*Frame) : 0.224Stream size : 489 MiB (89%)Writing library : XviD 73
AudioID : 1Format : AC-3Format/Info : Audio Coding 3Mode extension : CM (complete main)Format settings, Endianness : BigCodec ID : 2000Duration : 42mn 15sBit rate mode : ConstantBit rate : 192 KbpsChannel(s) : 2 channelsChannel positions : Front: L RSampling rate : 48.0 KHzBit depth : 16 bitsCompression mode : LossyStream size : 58.0 MiB (11%)Alignment : Split accross interleavesInterleave, duration : 40 ms (1.00 video frame)Interleave, preload duratio : 500 ms
Рип:
Релиз группа:
Раздача группы:
Отдельная громадная благодарность Media-Art-Club за созданный постер к раздаче.

Внимание ! Раздача ведётся путём добавления новых серий

Внимание! Раздача ведётся путём добавления новых серий; при каждом добавлении создётся новый торрент. Чтобы начать докачку новой серии, пользователям необходимо сделать следующее:
(1) остановить скачивание,
(2) удалить старый торрент у себя из клиента (старые серии удалять не надо),
(3) скачать новый торрент и запустить его у себя в клиенте вместо старого, при этом указать клиенту путь в старую папку куда и должно происходить скачивание новых серий.
Ваш клиент при этом должен произвести хеширование (проверку) старой папки (если не производит сам - помогите ему сделать это), и будет докачивать только те серии которых у вас ещё нет. Старые серии при этом не удаляются, а продолжают раздаваться!
Eсли вы уже удалили старые серии, то предотвратить повторную закачку старых серий можно, отжав галочку в соответсвующих местах при запуске нового торрента. По возможности, желательно не удалять старые серии как можно дольше чтобы релизёр не столько продолжал раздавать старые серии, а смог сконцентрироваться на новых.
ВНИМАНИЕ! ТОРРЕНТ ПЕРЕЗАЛИТ! ДОБАВЛЕНА 4-ая СЕРИИ!

Скриншоты

[Цитировать]



Показать сообщения:    

Текущее время: 09-Дек 10:46

Часовой пояс: UTC + 3


Вы не можете начинать темы
Вы не можете отвечать на сообщения
Вы не можете редактировать свои сообщения
Вы не можете удалять свои сообщения
Вы не можете голосовать в опросах
Вы не можете прикреплять файлы к сообщениям
Вы не можете скачивать файлы

!ВНИМАНИЕ!
Сайт не предоставляет электронные версии произведений, а занимается лишь коллекционированием и каталогизацией ссылок, присылаемых и публикуемых на форуме нашими читателями. Если вы являетесь правообладателем какого-либо представленного материала и не желаете, чтобы ссылка на него находилась в нашем каталоге, свяжитесь с нами, и мы незамедлительно удалим ее. Файлы для обмена на трекере предоставлены пользователями сайта, и администрация не несет ответственности за их содержание. Просьба не заливать файлы, защищенные авторскими правами, а также файлы нелегального содержания!