[ Сегодня идет свободное скачивание без начисления Download ]


Статистика раздачи
Качаю: [ 1 ]
 
   
 
Top  
 
 
Охотники за бриллиантами--Год выпуска: 2011
Производство: Россия
Жанр: детектив
Продолжительность: ~53 мин.
Субтитры: нет--Режиссёр: Александр Котт--В ролях: Алексей Серебряков, Пётр Фёдоров, Владимир Ильин, Александр Новин, Евгений Миронов, Мария Аронова, Авангард Леонтьев, Виталий Кищенко, Антон Гришанин, Виталий Гусев--Описание: В ноябре 1980-го происходит ограбление вдовы А. Толстого. Из квартиры выносят антиквариат, но, главное, пропадает необыкновенной красоты брошь Королевская Лилия, изготовленная для Людовика XV. Поскольку вдова Толстого имеет обширные связи и в СССР и за рубежом, дело получает широкий резонанс, к расследованию привлекаются самые серьезные силы МВД, за ходом следствия следит лично министр МВД Щелоков.
Следствие выходит на участницу ограбления — жену французского дипломата, которая собирается покинуть страну. Задержан и её сообщник, известный одесский вор по кличке Бес. Однако бриллиантов при них не обнаружено. Следователь Шахов раскручивает цепочку, надеясь выйти на заказчика — следы уводят всё выше и выше по служебной лестнице, и расследование становится всё опаснее и опаснее для Шахова.-- --Релиз: --Качество: WEB-DL 1080p
Формат: MKV
Сэмпл
Видео кодек: MPEG2
Аудио кодек: AC3
Видео: MPEG-4 AVC, 1920х1080, 25 fps. ~ 4150 Кбит/с, 0.077 bit/pixel
Аудио: AC3, 44100Hz, 2ch, 192 Кбит/с

MI

General
Unique ID : 213264812360068834372435600293578622818 (0xA0714F0EE1E83EFFBBF3CE3F415F4762)
Complete name : D:\TORRENTS\Ohotniki.za.Brilliantami.WEB-DL (1080p).tahiy\1.Охотники за бриллиантами.tahiy.mkv
Format : Matroska
Format version : Version 4 / Version 2
File size : 1.57 GiB
Duration : 53mn 34s
Overall bit rate : 4 195 Kbps
Movie name : Ohotniki.za.Brilliantami.tahiy
Encoded date : UTC 2014-12-20 10:10:59
Writing application : mkvmerge v6.6.0 ('The Edge Of The In Between') built on Dec 1 2013 17:55:00
Writing library : libebml v1.3.0 + libmatroska v1.4.1
Video
ID : 1
Format : AVC
Format/Info : Advanced Video Codec
Format profile : High@L4.0
Format settings, CABAC : Yes
Format settings, ReFrames : 3 frames
Codec ID : V_MPEG4/ISO/AVC
Duration : 53mn 34s
Bit rate : 4 000 Kbps
Width : 1 920 pixels
Height : 1 080 pixels
Display aspect ratio : 16:9
Frame rate mode : Constant
Frame rate : 25.000 fps
Color space : YUV
Chroma subsampling : 4:2:0
Bit depth : 8 bits
Scan type : Progressive
Bits/(Pixel*Frame) : 0.077
Stream size : 1.47 GiB (93%)
Title : Ohotniki.za.Brilliantami.tahiy
Writing library : x264 core 120
Encoding settings : cabac=1 / ref=3 / deblock=1:0:0 / analyse=0x3:0x133 / me=umh / subme=7 / psy=1 / psy_rd=1.00:0.00 / mixed_ref=1 / me_range=32 / chroma_me=1 / trellis=2 / 8x8dct=1 / cqm=0 / deadzone=21,11 / fast_pskip=1 / chroma_qp_offset=-2 / threads=12 / sliced_threads=0 / nr=0 / decimate=1 / interlaced=0 / bluray_compat=0 / constrained_intra=0 / bframes=0 / weightp=0 / keyint=75 / keyint_min=26 / scenecut=40 / intra_refresh=0 / rc_lookahead=50 / rc=2pass / mbtree=0 / bitrate=4000 / ratetol=1.0 / qcomp=0.20 / qpmin=10 / qpmax=51 / qpstep=4 / cplxblur=20.0 / qblur=0.5 / vbv_maxrate=5000 / vbv_bufsize=5000 / nal_hrd=none / ip_ratio=1.40 / aq=1:1.00
Language : Russian
Default : Yes
Forced : No
Color primaries : BT.709
Transfer characteristics : BT.709
Matrix coefficients : BT.709
Audio
ID : 2
Format : AC-3
Format/Info : Audio Coding 3
Mode extension : CM (complete main)
Format settings, Endianness : Big
Codec ID : A_AC3
Duration : 53mn 34s
Bit rate mode : Constant
Bit rate : 192 Kbps
Channel(s) : 2 channels
Channel positions : Front: L R
Sampling rate : 44.1 KHz
Bit depth : 16 bits
Compression mode : Lossy
Stream size : 73.6 MiB (5%)
Language : Russian
Default : Yes
Forced : No

Скриншоты


-
-

[Цитировать]



Показать сообщения:    

Текущее время: 20-Фев 09:32

Часовой пояс: UTC + 3


Вы не можете начинать темы
Вы не можете отвечать на сообщения
Вы не можете редактировать свои сообщения
Вы не можете удалять свои сообщения
Вы не можете голосовать в опросах
Вы не можете прикреплять файлы к сообщениям
Вы не можете скачивать файлы

!ВНИМАНИЕ!
Сайт не предоставляет электронные версии произведений, а занимается лишь коллекционированием и каталогизацией ссылок, присылаемых и публикуемых на форуме нашими читателями. Если вы являетесь правообладателем какого-либо представленного материала и не желаете, чтобы ссылка на него находилась в нашем каталоге, свяжитесь с нами, и мы незамедлительно удалим ее. Файлы для обмена на трекере предоставлены пользователями сайта, и администрация не несет ответственности за их содержание. Просьба не заливать файлы, защищенные авторскими правами, а также файлы нелегального содержания!