[ Сегодня идет свободное скачивание без начисления Download ]


Статистика раздачи
Нет
 
   
 
Top  
 
 
Всё вернётся
Год выпуска: 2014
Производство: Star Media
Жанр: Мелодрама
Продолжительность: ~00:45:00
Субтитры: нет
Режиссёр: Алексей Лисовец
В ролях: Валерия Федорович, Андрей Кузичёв, Леонид Громов, Валентин Томусяк, Александра Кузенкина, Валерий Сковронский, Валентин Касьян
Описание: Наташа Корсунова молода, красива, умна. Она уверена в том, что мир создан специально для неё. Её отец - уважаемый в городе врач, он помог появиться на свет не одному десятку малышей. Но однажды ему не удается спасти во время родов ни мать, ни дитя. И обезумевший от горя муж - Александр Мальцев – обвиняет медика во всём...
...Как-то во время своей традиционной утренней пробежки Наташа знакомится с молодым мужчиной. Им оказывается Александр...
Все раздачи сериала:

Качество: WEBRip
Формат: AVI
Видео кодек: XviD
Аудио кодек: АС-3
Видео: 720x400 (1.80:1), 25 fps, XviD build 50 ~1600 kbps avg, 0.22 bit/pixel
Аудио: 48 kHz, AC3 Dolby Digital, 2/0 (L,R) ch, ~192.00 kbps avg
Сторонней рекламы нет!

MediaInfo

GeneralComplete name               : D:\Vytas\Video\Vsio.vernetsia.2014..WEB-DLRip.Files-x.GeneralFilm\02.Vsio.vernetsia.2014..WEB-DLRip.Files-x.GeneralFilm.aviFormat                      : AVIFormat/Info                 : Audio Video InterleaveFile size                   : 600 MiBDuration                    : 42mn 55sOverall bit rate            : 1 955 KbpsWriting application         : VirtualDubMod 1.5.10.3 | www.virtualdub-fr.org || (build 2550/release)Writing library             : VirtualDubMod build 2550/release
VideoID : 0Format : MPEG-4 VisualFormat profile : Advanced Simple@L5Format settings, BVOP : 1Format settings, QPel : NoFormat settings, GMC : No warppointsFormat settings, Matrix : CustomCodec ID : XVIDCodec ID/Hint : XviDDuration : 42mn 55sBit rate : 1 751 KbpsWidth : 720 pixelsHeight : 400 pixelsDisplay aspect ratio : 16:9Frame rate : 29.970 fpsColor space : YUVChroma subsampling : 4:2:0Bit depth : 8 bitsScan type : ProgressiveCompression mode : LossyBits/(Pixel*Frame) : 0.203Stream size : 538 MiB (90%)Writing library : XviD 73
AudioID : 1Format : AC-3Format/Info : Audio Coding 3Mode extension : CM (complete main)Format settings, Endianness : BigCodec ID : 2000Duration : 42mn 55sBit rate mode : ConstantBit rate : 192 KbpsChannel(s) : 2 channelsChannel positions : Front: L RSampling rate : 48.0 KHzBit depth : 16 bitsCompression mode : LossyStream size : 58.9 MiB (10%)Alignment : Split accross interleavesInterleave, duration : 33 ms (1.00 video frame)Interleave, preload duratio : 500 ms
Рип:
Релиз группа:
Раздача группы:

Внимание ! Раздача ведётся путём добавления новых серий

Внимание! Раздача ведётся путём добавления новых серий; при каждом добавлении создётся новый торрент. Чтобы начать докачку новой серии, пользователям необходимо сделать следующее:
(1) остановить скачивание,
(2) удалить старый торрент у себя из клиента (старые серии удалять не надо),
(3) скачать новый торрент и запустить его у себя в клиенте вместо старого, при этом указать клиенту путь в старую папку куда и должно происходить скачивание новых серий.
Ваш клиент при этом должен произвести хеширование (проверку) старой папки (если не производит сам - помогите ему сделать это), и будет докачивать только те серии которых у вас ещё нет. Старые серии при этом не удаляются, а продолжают раздаваться!
Eсли вы уже удалили старые серии, то предотвратить повторную закачку старых серий можно, отжав галочку в соответсвующих местах при запуске нового торрента. По возможности, желательно не удалять старые серии как можно дольше чтобы релизёр не столько продолжал раздавать старые серии, а смог сконцентрироваться на новых.
ВНИМАНИЕ! ТОРРЕНТ ПЕРЕЗАЛИТ! ДОБАВЛЕНА 2-ая СЕРИИ!

Скриншоты

[Цитировать]



Показать сообщения:    

Текущее время: 07-Дек 15:38

Часовой пояс: UTC + 3


Вы не можете начинать темы
Вы не можете отвечать на сообщения
Вы не можете редактировать свои сообщения
Вы не можете удалять свои сообщения
Вы не можете голосовать в опросах
Вы не можете прикреплять файлы к сообщениям
Вы не можете скачивать файлы

!ВНИМАНИЕ!
Сайт не предоставляет электронные версии произведений, а занимается лишь коллекционированием и каталогизацией ссылок, присылаемых и публикуемых на форуме нашими читателями. Если вы являетесь правообладателем какого-либо представленного материала и не желаете, чтобы ссылка на него находилась в нашем каталоге, свяжитесь с нами, и мы незамедлительно удалим ее. Файлы для обмена на трекере предоставлены пользователями сайта, и администрация не несет ответственности за их содержание. Просьба не заливать файлы, защищенные авторскими правами, а также файлы нелегального содержания!