[ Сегодня идет свободное скачивание без начисления Download ]


Статистика раздачи
Нет
 
   
 
Top  
 
 
Позови и я приду
Год выпуска: 2014
Производство: Студия "Паламедия"
Жанр: Мелодрама
Продолжительность: ~0:47:00 серия
Субтитры: нет
Режиссёр: Глеб Якубовский
В ролях: Елена Полякова и Анатолий Руденко. Также в фильме снимались Игорь Карпиевич, Валерий Воротынский и другие.
Описание: Любовь к сыну, которого героиня вынуждена была оставить в детдоме, когда была несовершеннолетней. Любовь к мужчине, усыновившего ее ребенка. И разлучница, стремящаяся заполучить этого мужчину через привязанность ребенка, который ей не нужен.
Но… побеждает истинная любовь. Разлучница повержена. У мальчика появляется настоящая семья с любящими родителями.
Все раздачи сериала:

Качество: HDTV 1080i
Формат: TS
Видео кодек: H.264
Аудио кодек: MP2
Видео: MPEG4 Video (H264) 1920x1080, ~ 7939 Кбит/сек, 25.00fps 0.153 bit/pixel
Аудио: MP2, 2 канала, 48,0 КГц, ~256 kbps
Сторонней рекламы нет!

MediaInfo

ОбщееИдентификатор                            : 1 (0x1)Полное имя                               : F:\Фильмы торренты\Pozovi.i.ya.pridu.2014.HDTV.(1080i).MediaClub\Pozovi.i.ya.pridu.(01.seriya.iz.02).2014.HDTV.(1080i).MediaClub.tsФормат                                   : MPEG-TSРазмер файла                             : 5,48 ГбайтПродолжительность                        : 1 ч. 30 м.Режим общего битрейта                    : ПеременныйОбщий поток                              : 8624 Кбит/сек
ВидеоИдентификатор : 1000 (0x3E8)Идентификатор меню : 1 (0x1)Формат : AVCФормат/Информация : Advanced Video CodecПрофиль формата : [email protected] CABAC формата : ДаПараметр ReFrames формата : 4 кадраИдентификатор кодека : 27Продолжительность : 1 ч. 30 м.Битрейт : 7939 Кбит/секШирина : 1920 пикселейВысота : 1080 пикселейСоотношение сторон : 16:9Частота кадров : 25,000 кадров/секЦветовое пространство : YUVСубдискретизация насыщенности : 4:2:0Битовая глубина : 8 битТип развёртки : MBAFFБит/(Пиксели*Кадры) : 0.153Размер потока : 5,04 Гбайт (92%)
АудиоИдентификатор : 1101 (0x44D)Идентификатор меню : 1 (0x1)Формат : MPEG AudioВерсия формата : Version 1Профиль формата : Layer 2Идентификатор кодека : 3Продолжительность : 1 ч. 30 м.Вид битрейта : ПостоянныйБитрейт : 256 Кбит/секКаналы : 2 каналаЧастота : 48,0 КГцМетод сжатия : С потерямиРазмер потока : 166 Мбайт (3%)Язык : English
Раздача группы:
Отдельное спасибо nikolspup за предоставление материала.

Внимание ! Раздача ведётся путём добавления новых серий

Внимание! Раздача ведётся путём добавления новых серий; при каждом добавлении создётся новый торрент. Чтобы начать докачку новой серии, пользователям необходимо сделать следующее:
(1) остановить скачивание,
(2) удалить старый торрент у себя из клиента (старые серии удалять не надо),
(3) скачать новый торрент и запустить его у себя в клиенте вместо старого, при этом указать клиенту путь в старую папку куда и должно происходить скачивание новых серий.
Ваш клиент при этом должен произвести хеширование (проверку) старой папки (если не производит сам - помогите ему сделать это), и будет докачивать только те серии которых у вас ещё нет. Старые серии при этом не удаляются, а продолжают раздаваться!
Eсли вы уже удалили старые серии, то предотвратить повторную закачку старых серий можно, отжав галочку в соответсвующих местах при запуске нового торрента. По возможности, желательно не удалять старые серии как можно дольше чтобы релизёр не столько продолжал раздавать старые серии, а смог сконцентрироваться на новых.
ВНИМАНИЕ! ТОРРЕНТ ПЕРЕЗАЛИТ! ДОБАВЛЕНА 3-ая - 4-ая СЕРИИ!

Скриншоты

[Цитировать]



Показать сообщения:    

Текущее время: 06-Дек 20:59

Часовой пояс: UTC + 3


Вы не можете начинать темы
Вы не можете отвечать на сообщения
Вы не можете редактировать свои сообщения
Вы не можете удалять свои сообщения
Вы не можете голосовать в опросах
Вы не можете прикреплять файлы к сообщениям
Вы не можете скачивать файлы

!ВНИМАНИЕ!
Сайт не предоставляет электронные версии произведений, а занимается лишь коллекционированием и каталогизацией ссылок, присылаемых и публикуемых на форуме нашими читателями. Если вы являетесь правообладателем какого-либо представленного материала и не желаете, чтобы ссылка на него находилась в нашем каталоге, свяжитесь с нами, и мы незамедлительно удалим ее. Файлы для обмена на трекере предоставлены пользователями сайта, и администрация не несет ответственности за их содержание. Просьба не заливать файлы, защищенные авторскими правами, а также файлы нелегального содержания!