[ Сегодня идет свободное скачивание без начисления Download ]


Статистика раздачи
Нет
 
   
 
Top  
 
 
Пока станица спит (Казаки)
Год выпуска: 2013
Производство: Мостелефильм, «КиноПродакшн»
Жанр: Мелодрама
Продолжительность: ~0:45:00 серия
Субтитры: нет
Режиссёр: Бата Недич, Елена Цыплакова, Александр Мохов
В ролях: Зоряна Марченко, Вячеслав Дробинков, Дарья Егорова, Екатерина Олькина, Александр Мохов, Галина Безрук, Анатолий Хостикоев, Дмитрий Назаров, Олеся Жураковская, Георгий Хостикоев, Артём Алексеев (II), Дмитрий Арбенин, Владимир Горянский, Станислав Боклан, Ева Авеева, Наталия Сумская, Дарья Питерова, Надежда Костюк, Елена Турбал, Анна Саливанчук, Сергей Деревянко, Александр Кобзарь, Костя Чернокрылюк, Ольга Бережная, Виталий Иванченко, Олесь Кацион, Юрий Яковлев-Суханов, Александр Попов (IV), Андрей Тартаков, Александр Гетьманский, Светлана Потанина
Описание: Это история о любви. О любви свободной, страстной и безудержной, не терпящей никаких ограничений, будь то сословное, имущественное или иное неравенство…
Марыся – одна из главных героинь этой истории. Красивая молодая казачка выросла в атмосфере безумной любви отца – любой каприз, любая прихоть ее тут же беспрекословно выполняются. Судьба сводит ее с молодым дворянином Степаном, который приезжает в станицу со своей возлюбленной Аленой, чтобы девушку насильно не выдали замуж за богатого, но нелюбимого купца Петра Колеванова. Купец годится в отцы Алене, но ее родителей это не смущает – ведь столь удачная партия обеспечит будущее дочери, а они сами смогут поправить свое материальное положение за счет предприимчивого зятя.
После того как дочь сбежала из дома, семья оказалась опозорена настолько, что удачно выйти замуж, а скорее всего, вообще выйти замуж, Алене бы уже не удалось. Но Колеванов решил не отступать от красавицы и взялся вернуть "будущую невесту" в отчий дом и насильно сделать своей женой. Степан и Алена, прячась от родительского гнева и собираясь тайно обручиться, снимают дом у одной из обитательниц станицы и называются братом и сестрой.
На свое несчастье Степан спасает от верной гибели Марысю, которую понесла норовистая лошадь. Девушка с первого взгляда влюбляется в своего спасителя и готова во что бы то ни стало женить на себе видного парня. А получив от Степана недвусмысленный отказ, решает отомстить. Но это всего лишь начало истории...
Все раздачи сериала:

Качество: SATRip
Формат: AVI
Видео кодек: XviD
Аудио кодек:MP3
Видео: 720x400 (1.80:1), 25 fps, XviD build 50 ~1534 kbps avg, 0.21 bit/pixel
Аудио: 48 kHz, AC3 Dolby Digital, 2/0 (L,R) ch, ~192 kbps
Сторонней рекламы нет!

MediaInfo

ОбщееПолное имя                       : E:\Downloads\55\Пока станица спит SATRip XviD (61-80)\Пока станица спит (Казаки).(061.seriya).2014.XviD.SATRip.aviФормат                           : AVIФормат/Информация                : Audio Video InterleaveРазмер файла                     : 549 МбайтПродолжительность                : 44 м.Общий поток                      : 1736 Кбит/секПрограмма кодирования            : VirtualDubMod 1.5.10.3 | www.virtualdub-fr.org || (build 2550/release)Библиотека кодирования           : VirtualDub build 24442/release
ВидеоИдентификатор : 0Формат : MPEG-4 VisualПрофиль формата : Advanced Simple@L5Параметр BVOP формата : 1Параметр QPel формата : НетПараметр GMC формата : Без точки переходаПараметр матрицы формата : Default (H.263)Идентификатор кодека : XVIDИдентификатор кодека/Подсказка : XviDПродолжительность : 44 м.Битрейт : 1534 Кбит/секШирина : 720 пикс.Высота : 400 пикс.Соотношение сторон : 16:9Частота кадров : 25,000 кадр/секЦветовое пространство : YUVПодвыборка цветности : 4:2:0Битовая глубина : 8 битТип развёртки : ПрогрессивнаяМетод сжатия : С потерямиБит/(Пиксели*Кадры) : 0.213Размер потока : 486 Мбайт (88%)Библиотека кодирования : XviD 1.2.1 (UTC 2008-12-04)
АудиоИдентификатор : 1Формат : AC-3Формат/Информация : Audio Coding 3Расширение режима : CM (complete main)Идентификатор кодека : 2000Продолжительность : 44 м.Вид битрейта : ПостоянныйБитрейт : 192 Кбит/секКаналы : 2 каналаРасположение каналов : Front: L RЧастота : 48,0 КГцБитовая глубина : 16 битМетод сжатия : С потерямиЗадержка видео : 16 мс.Размер потока : 60,8 Мбайт (11%)Выравнивание : Разделение по промежуткамПродолжительность промежутка : 40 мс. (1,00 видеокадр)Время предзагрузки промежутка : 500 ms
Рип: drakula05
Оформление:
Раздача группы:

Внимание ! Раздача ведётся путём добавления новых серий

Внимание! Раздача ведётся путём добавления новых серий; при каждом добавлении создётся новый торрент. Чтобы начать докачку новой серии, пользователям необходимо сделать следующее:
(1) остановить скачивание,
(2) удалить старый торрент у себя из клиента (старые серии удалять не надо),
(3) скачать новый торрент и запустить его у себя в клиенте вместо старого, при этом указать клиенту путь в старую папку куда и должно происходить скачивание новых серий.
Ваш клиент при этом должен произвести хеширование (проверку) старой папки (если не производит сам - помогите ему сделать это), и будет докачивать только те серии которых у вас ещё нет. Старые серии при этом не удаляются, а продолжают раздаваться!
Eсли вы уже удалили старые серии, то предотвратить повторную закачку старых серий можно, отжав галочку в соответсвующих местах при запуске нового торрента. По возможности, желательно не удалять старые серии как можно дольше чтобы релизёр не столько продолжал раздавать старые серии, а смог сконцентрироваться на новых.
ВНИМАНИЕ! ТОРРЕНТ ПЕРЕЗАЛИТ! ДОБАВЛЕНА 267-ая - 270-ая СЕРИИ!

Скриншоты

[Цитировать]



Показать сообщения:    

Текущее время: 08-Дек 14:57

Часовой пояс: UTC + 3


Вы не можете начинать темы
Вы не можете отвечать на сообщения
Вы не можете редактировать свои сообщения
Вы не можете удалять свои сообщения
Вы не можете голосовать в опросах
Вы не можете прикреплять файлы к сообщениям
Вы не можете скачивать файлы

!ВНИМАНИЕ!
Сайт не предоставляет электронные версии произведений, а занимается лишь коллекционированием и каталогизацией ссылок, присылаемых и публикуемых на форуме нашими читателями. Если вы являетесь правообладателем какого-либо представленного материала и не желаете, чтобы ссылка на него находилась в нашем каталоге, свяжитесь с нами, и мы незамедлительно удалим ее. Файлы для обмена на трекере предоставлены пользователями сайта, и администрация не несет ответственности за их содержание. Просьба не заливать файлы, защищенные авторскими правами, а также файлы нелегального содержания!