[ Сегодня идет свободное скачивание без начисления Download ]


Статистика раздачи
Нет
 
   
 
Top  
 
 
Умельцы
Год выпуска: 2014
Производство: ООО "Компания "Пирамида"", 2013 Год
Жанр: Криминальный фильм
Продолжительность: 00:50:00
Субтитры: Нет
Режиссёр: Всеволод Аравин
В ролях: Сергей Маковецкий, Дмитрий Марьянов, Евгений Миллер, Анастасия Панина, Владимир Наджафов, Ксения Хаирова, Алексей Паничев, Олег Ребров, Ярослав Жалнин, Павел Афонькин, Макс Бирюков, Александр Сергеев (IV), Марина Орлова, Юрий Маслак, Ксения Баскакова, Альбина Скобелева, Владимир Ташлыков, Елена Подкаминская, Илья Бледный, Анна Якунина, Евгения Крегжде, Борис Каморзин, Александр Хошабаев, Сергей Неудачин, Андрей Свиридов, Вероника Ицкович, Максим Важов, Всеволод Аравин, Валентина Лукащук, Александр Наумов, Мария Козакова, Иван Агапов, Татьяна Абрамова, Владимир Горюшин, Михаил Станкевич, Леонид Тимцуник, Екатерина Дубакина, Дмитрий Прокофьев, Артем Гайдуков, Даниил Кокин, Мисак Геворкян, Анастасия Бусыгина, Анатолий Филиппов, Даниил Спиваковский, Евгения Брик, Владимир Малков, Александр Леньков, Артур Ваха, Борис Хвошнянский, Тагир Рахимов, Егор Баринов, Виктор Соловьёв, Марина Вайнбранд, Александр Ильин, Алексей Баранов (III), Антон Шурцов, Андрей Аверьянов, Олег Васильков, Иван Сигорских, Дарья Михайлова, Елена Финогеева, Алла Малкова, Андрей Муравьёв, Елена Супруненко, Олег Никитин (II), Алексей Алфеев
Описание: В жизни случаются разные перипетии и никогда не знаешь, какой стороной мир повернется к тебе завтра. И вот два классных сыщика: следователь, майор Леонид Купцов (Сергей Маковецкий) и оперуполномоченный, капитан Дмитрий Петрухин (Евгений Миллер) вдруг оказались не у дел – обоих за излишнее рвение выгнали из уголовного розыска.
Неожиданно работу им предлагает “Брюнет” - их бывший “клиент” с богатым бандитским прошлым, а ныне бизнесмен, хозяин солидной фирмы, к которому все обращаются не иначе, как Виктор Альбертович (Дмитрий Марьянов). Сначала сыщики раскрывают для него одно дело, а потом и вовсе устраиваются на работу. Вот так и раскрывают дело за делом два мастера сыска, попутно выясняя для себя, каково же все-таки призвание профессионального сыщика – вершить справедливость, сажать преступников в тюрьму или просто распутывать чужие интриги? Каждый по-своему находит ответ для своей души и совести. А попутно непросто, но неудержимо устраивается их личная жизнь.
-
Доп. информация: Реклама отсутствует!
-
Релиз группы::
-
Все раздачи сериала:
Сэмпл: https://cloud.mail.ru/public/8170e32977fe/%D0%A3%D0...Rip.by.simka.avi
Качество: SATRip
Формат: AVI
Видео кодек: XviD
Аудио кодек: MP3
Видео: 720x400, 25 fps, XviD, ~1400 kbps, 0.229 bit/pixel
Аудио: 48 kHz, MPEG Layer 3, 2 ch, 192 kbps

MI

бщее
Полное имя : U:\Сериалы (2014)_2\Умельцы (2014)\Умельцы.(01.seriya).2014.XviD.SATRip.by.simka.avi
Формат : AVI
Формат/Информация : Audio Video Interleave
Размер файла : 572 Мбайт
Продолжительность : 49 м.
Общий поток : 1601 Кбит/сек
Программа кодирования : VirtualDubModRus 1.5.10.2 (build 2542/release)
Библиотека кодирования : VirtualDubMod build 2542/release
Видео
Идентификатор : 0
Формат : MPEG-4 Visual
Профиль формата : Advanced [email protected]
Параметр BVOP формата : 1
Параметр QPel формата : Нет
Параметр GMC формата : Без точки перехода
Параметр матрицы формата : Default (MPEG)
Идентификатор кодека : XVID
Идентификатор кодека/Подсказка : XviD
Продолжительность : 49 м.
Битрейт : 1400 Кбит/сек
Ширина : 720 пикселей
Высота : 400 пикселей
Соотношение сторон : 16:9
Частота кадров : 25,000 кадров/сек
Цветовое пространство : YUV
Субдискретизация насыщенности : 4:2:0
Битовая глубина : 8 бит
Тип развёртки : Прогрессивная
Метод сжатия : С потерями
Бит/(Пиксели*Кадры) : 0.194
Размер потока : 500 Мбайт (87%)
Библиотека кодирования : XviD 1.2.1 (UTC 2008-12-04)
Аудио
Идентификатор : 1
Формат : MPEG Audio
Версия формата : Version 1
Профиль формата : Layer 3
Режим : Joint stereo
Расширение режима : MS Stereo
Идентификатор кодека : 55
Идентификатор кодека/Подсказка : MP3
Продолжительность : 49 м.
Вид битрейта : Постоянный
Битрейт : 192 Кбит/сек
Каналы : 2 канала
Частота : 48,0 КГц
Метод сжатия : С потерями
Размер потока : 68,6 Мбайт (12%)
Выравнивание : Соединение по промежуткам
Продолжительность промежутка : 40 мс. (1,00 видеокадр)
Время предзагрузки промежутка : 504 мс.
Библиотека кодирования : LAME3.99r
Настройки программы : -m j -V 4 -q 2 -lowpass 18.6 -b 192

Скриншоты

-------------

Внимание! Раздача ведётся путём добавления новых выпусков

При каждом добавлении создаётся новый торрент. Чтобы начать докачку нового выпуска, пользователям необходимо сделать следующее:
? остановить скачивание;
? удалить старый торрент у себя из клиента (старые выпуски удалять не надо);
? скачать новый торрент и запустить его у себя в клиенте вместо старого, при этом указать клиенту путь в старую папку куда и должно происходить скачивание новых выпусков;
? ваш клиент при запуске должен произвести хеширование (проверку) старой папки (если не производит сам - помогите ему сделать это), и будет докачивать только те выпуски, которых у вас ещё нет. Старые выпуски при этом не удаляются, а продолжают раздаваться!, Конец фильма!, Продолжения в понедельник если не доберется ПО http://inter.ua/ru/cinema/films/muzh_na_chas_2014 http://6.firepic.org/6/images/2014-07/30/9f572qp4ljwf.jpg
? Eсли вы уже удалили старые выпуски, то предотвратить повторную закачку старых выпусков можно, отжав галочку в соответсвующих местах при запуске нового торрента.внимания в 4-й серии отсутствует около 7 минут из за погодних условий завтра с повтора надеюсь записать и будет замена!!! Концовка есть думаю не поттера ети 7 мин
Добавлена 16-я серия!

[Цитировать]



Показать сообщения:    

Текущее время: 05-Дек 13:37

Часовой пояс: UTC + 3


Вы не можете начинать темы
Вы не можете отвечать на сообщения
Вы не можете редактировать свои сообщения
Вы не можете удалять свои сообщения
Вы не можете голосовать в опросах
Вы не можете прикреплять файлы к сообщениям
Вы не можете скачивать файлы

!ВНИМАНИЕ!
Сайт не предоставляет электронные версии произведений, а занимается лишь коллекционированием и каталогизацией ссылок, присылаемых и публикуемых на форуме нашими читателями. Если вы являетесь правообладателем какого-либо представленного материала и не желаете, чтобы ссылка на него находилась в нашем каталоге, свяжитесь с нами, и мы незамедлительно удалим ее. Файлы для обмена на трекере предоставлены пользователями сайта, и администрация не несет ответственности за их содержание. Просьба не заливать файлы, защищенные авторскими правами, а также файлы нелегального содержания!