[ Сегодня идет свободное скачивание без начисления Download ]


Статистика раздачи
Нет
 
   
 
Top  
 
 
Умельцы
Год выпуска: 2014
Производство: "Новая студия", кинокомпания "УПС"
Жанр: Криминальный фильм
Продолжительность: 00:49:00
Субтитры: Украинские (вшитые)
Режиссёр: Всеволод Аравин
В ролях: Сергей Маковецкий, Дмитрий Марьянов, Евгений Миллер, Анастасия Панина, Владимир Наджафов, Ксения Хаирова, Алексей Паничев, Олег Ребров, Ярослав Жалнин, Павел Афонькин, Макс Бирюков, Александр Сергеев (IV), Марина Орлова, Юрий Маслак, Ксения Баскакова, Альбина Скобелева, Владимир Ташлыков, Елена Подкаминская, Илья Бледный, Анна Якунина, Евгения Крегжде, Борис Каморзин, Александр Хошабаев, Сергей Неудачин, Андрей Свиридов, Вероника Ицкович, Максим Важов, Всеволод Аравин, Валентина Лукащук, Александр Наумов, Мария Козакова, Иван Агапов, Татьяна Абрамова, Владимир Горюшин, Михаил Станкевич, Леонид Тимцуник, Екатерина Дубакина, Дмитрий Прокофьев, Артем Гайдуков, Даниил Кокин, Мисак Геворкян, Анастасия Бусыгина, Анатолий Филиппов, Даниил Спиваковский, Евгения Брик, Владимир Малков, Александр Леньков, Артур Ваха, Борис Хвошнянский, Тагир Рахимов, Егор Баринов, Виктор Соловьёв, Марина Вайнбранд, Александр Ильин, Алексей Баранов (III), Антон Шурцов, Андрей Аверьянов, Олег Васильков, Иван Сигорских, Дарья Михайлова, Елена Финогеева, Алла Малкова, Андрей Муравьёв, Елена Супруненко, Олег Никитин (II), Алексей Алфеев
Описание: В жизни случаются разные перипетии и никогда не знаешь, какой стороной мир повернется к тебе завтра. И вот два классных сыщика: следователь, майор Леонид Купцов (Сергей Маковецкий) и оперуполномоченный, капитан Дмитрий Петрухин (Евгений Миллер) вдруг оказались не у дел – обоих за излишнее рвение выгнали из уголовного розыска.
Неожиданно работу им предлагает “Брюнет” - их бывший “клиент” с богатым бандитским прошлым, а ныне бизнесмен, хозяин солидной фирмы, к которому все обращаются не иначе, как Виктор Альбертович (Дмитрий Марьянов). Сначала сыщики раскрывают для него одно дело, а потом и вовсе устраиваются на работу. Вот так и раскрывают дело за делом два мастера сыска, попутно выясняя для себя, каково же все-таки призвание профессионального сыщика – вершить справедливость, сажать преступников в тюрьму или просто распутывать чужие интриги? Каждый по-своему находит ответ для своей души и совести. А попутно непросто, но неудержимо устраивается их личная жизнь.
Все раздачи сериала:

Качество: DVB
Формат: MPEG 2
Видео кодек: MPEG 2
Аудио кодек: MPEG 1
Видео: 768х576 @ 720x576 (4:3) 25.00fps ~4470 Kbps (0.431 bit/pixel)
Аудио: MPEG Audio 48000Hz 1 channels 192 Кбит/сек
Сторонней рекламы нет!

MediaInfo

ОбщееПолное имя                       : F:\Умельцы DVB\Умельцы 01_серия_DVB_by_Серый1779.mpgФормат                           : MPEG-PSРазмер файла                     : 1,66 ГбайтПродолжительность                : 49 м.Общий поток                      : 4757 Кбит/секБиблиотека кодирования           : (c) 1998-2008 Womble Multimedia, Inc. / MPEG Video Wizard (08/2008) / Aug 25 2008
ВидеоИдентификатор : 224 (0xE0)Формат : MPEG VideoВерсия формата : Version 2Профиль формата : Main@MainПараметр BVOP формата : ДаПараметр матрицы формата : По умолчаниюПараметры GOP формата : M=1, N=19Продолжительность : 49 м.Вид битрейта : ПеременныйБитрейт : 4470 Кбит/секНоминальный битрейт : 15,0 Мбит/секШирина : 720 пикс.Высота : 576 пикс.Соотношение сторон : 4:3Частота кадров : 25,000 кадр/секСтандарт вещания : PALЦветовое пространство : YUVПодвыборка цветности : 4:2:0Битовая глубина : 8 битТип развёртки : ЧересстрочнаяМетод сжатия : С потерямиБит/(Пиксели*Кадры) : 0.431Размер потока : 1,56 Гбайт (94%)Библиотека кодирования : (c) 1998-2008 Womble Multimedia, Inc. / MPEG Video Wizard (08/2008) / Aug 25 2008
АудиоИдентификатор : 192 (0xC0)Формат : MPEG AudioВерсия формата : Version 1Профиль формата : Layer 2Продолжительность : 49 м.Вид битрейта : ПостоянныйБитрейт : 192 Кбит/секКаналы : 1 каналЧастота : 48,0 КГцМетод сжатия : С потерямиРазмер потока : 68,5 Мбайт (4%)
Запись и монтаж:

Внимание ! Раздача ведётся путём добавления новых серий

Внимание! Раздача ведётся путём добавления новых серий; при каждом добавлении создётся новый торрент. Чтобы начать докачку новой серии, пользователям необходимо сделать следующее:
(1) остановить скачивание,
(2) удалить старый торрент у себя из клиента (старые серии удалять не надо),
(3) скачать новый торрент и запустить его у себя в клиенте вместо старого, при этом указать клиенту путь в старую папку куда и должно происходить скачивание новых серий.
Ваш клиент при этом должен произвести хеширование (проверку) старой папки (если не производит сам - помогите ему сделать это), и будет докачивать только те серии которых у вас ещё нет. Старые серии при этом не удаляются, а продолжают раздаваться!
Eсли вы уже удалили старые серии, то предотвратить повторную закачку старых серий можно, отжав галочку в соответсвующих местах при запуске нового торрента. По возможности, желательно не удалять старые серии как можно дольше чтобы релизёр не столько продолжал раздавать старые серии, а смог сконцентрироваться на новых.
ВНИМАНИЕ! ТОРРЕНТ ПЕРЕЗАЛИТ! ДОБАВЛЕНА 13-ая - 16-ая СЕРИИ!

Скриншоты

[Цитировать]



Показать сообщения:    

Текущее время: 07-Дек 13:44

Часовой пояс: UTC + 3


Вы не можете начинать темы
Вы не можете отвечать на сообщения
Вы не можете редактировать свои сообщения
Вы не можете удалять свои сообщения
Вы не можете голосовать в опросах
Вы не можете прикреплять файлы к сообщениям
Вы не можете скачивать файлы

!ВНИМАНИЕ!
Сайт не предоставляет электронные версии произведений, а занимается лишь коллекционированием и каталогизацией ссылок, присылаемых и публикуемых на форуме нашими читателями. Если вы являетесь правообладателем какого-либо представленного материала и не желаете, чтобы ссылка на него находилась в нашем каталоге, свяжитесь с нами, и мы незамедлительно удалим ее. Файлы для обмена на трекере предоставлены пользователями сайта, и администрация не несет ответственности за их содержание. Просьба не заливать файлы, защищенные авторскими правами, а также файлы нелегального содержания!