[ Сегодня идет свободное скачивание без начисления Download ]


Статистика раздачи
Нет
 
   
 
Top  
 
 
Братья по обмену 2
Год выпуска: 2014
Производство: Россия, "Yellow, Black and White" по заказу телеканала Россия 1
Жанр: Комедия
Продолжительность: 00:44:00 серия
Субтитры: нет
Режиссёр: Александр Жигалкин
В ролях: Фёдор Добронравов, Мария Аронова, Михаил Васьков, Михаил Хмуров, Дмитрий Мухамадеев, Дмитрий Блохин, Дарья Фекленко, Светлана Малюкова, Алина Кизиярова, Ольга Хохлова, Дмитрий Архангельский, Андрей Анкудинов, Валерия Бурдужа, Александр Нестеров, Олег Кассин, Константин Третьяков, Елена Шевченко
Описание: Долгожданное продолжение любимой комедии о братьях-близнецах Перечихиных.
Невероятные приключения, произошедшие с Федором и Валерием Перечихиными, конечно же, изменили их жизнь. Но, как это часто бывает, не настолько существенно, как казалось вначале. В характере Валерия снова начали проглядывать черты прежнего малосимпатичного дельца, готового пойти на сделку с совестью ради своих бизнес-целей.
Бизнесмен Валерий (Федор Добронравов) теперь живет в Москве вместе со своей женой Тамарой (Мария Аронова) и, как и прежде, возглавляет в компанию "Вектор". А Федор (Федор Добронравов), распрощавшись с тюремной жизнью, наслаждается сельским бытом с женой Мариной (Елена Шевченко) в Мокрухино и вынашивает идею строительства санатория на местном целебном источнике.
Обустроить источник мечтал еще отец Перечихиных. Валерий обещал финансировать строительство, однако деньги пока так и не прислал. И вот, как только вся большая семья наконец собралась в отпуск на море, Федор неожиданно обнаруживает рядом с источником строительную технику. Оказывается, мэр соседнего города Сосновска Козарезов (Михаил Васьков) затеял рядом с Мокрухино строительство своего поместья, присоединив к себе и источник.
К удивлению Федора, его брат Валерий не только отказывается вмешиваться в ситуацию, но даже планирует помочь Козарезову одержать победу на ближайших выборах - ведь от него зависит крупный контракт "Вектора".
Федор решает спасти источник и деревню от бессовестного мэра, а заодно и преподать своему брату-бизнесмену урок. Он устраивает так, что после очередного разговора "по душам" братья снова меняются местами.
Федор под видом Валерия едет на встречу с избирателями, где сосновская общественность избирает его мэром. А Валерий оказывается запертым на глухой заимке в лесу. При попытке добраться до "цивилизации" он попадает в лапы беглых уголовников, один из которых узнает в нем бывшего сокамерника - Федора Перечихина.
Все раздачи сериала:

Качество: WEBRip 720p
Формат: MKV
Видео кодек: H.264
Аудио кодек: AC-3
Видео: MPEG4 Video (H264) 1280x720, ~ 2371 kbps, 25.00fps 0.103 bit/pixel
Аудио: AC-3, 2 канала, 44,1 КГц, ~192 kbps, VBR
Сторонней рекламы нет!

MediaInfo

ОбщееУникальный идентификатор                 : 208487288652150709246261789792233740430 (0x9CD930F40D25EB558C23A8FB7522588E)Полное имя                               : F:\Фильмы торренты\Bratya.po.obmenu-2.2014.WEB-DL.(720p).MediaClub\Bratya.po.obmenu-2.(01.seriya).2014.WEB-DL.(720p).MediaClub.mkvФормат                                   : MatroskaВерсия формата                           : Version 2Размер файла                             : 850 МбайтПродолжительность                        : 45 м.Общий поток                              : 2615 Кбит/секНазвание фильма                          : Bratya.po.obmenu-2.(01.seriya).2014.WEB-DL.(720p).MediaClubДата кодирования                         : UTC 2014-12-22 20:21:12Программа кодирования                    : mkvmerge v5.8.0 ('No Sleep / Pillow') built on Sep  2 2012 15:37:04Библиотека кодирования                   : libebml v1.2.3 + libmatroska v1.3.0
ВидеоИдентификатор : 1Формат : AVCФормат/Информация : Advanced Video CodecПрофиль формата : High@L3.1Параметр CABAC формата : ДаПараметр ReFrames формата : 4 кадраИдентификатор кодека : V_MPEG4/ISO/AVCПродолжительность : 45 м.Битрейт : 2371 Кбит/секНоминальный битрейт : 2500 Кбит/секШирина : 1280 пикселейВысота : 720 пикселейСоотношение сторон : 16:9Режим частоты кадров : ПостоянныйЧастота кадров : 25,000 кадров/секЦветовое пространство : YUVСубдискретизация насыщенности : 4:2:0Битовая глубина : 8 битТип развёртки : ПрогрессивнаяБит/(Пиксели*Кадры) : 0.103Размер потока : 770 Мбайт (91%)Библиотека кодирования : x264 core 140Настройки программы : cabac=1 / ref=3 / deblock=1:0:0 / analyse=0x3:0x113 / me=hex / subme=7 / psy=1 / psy_rd=1.00:0.00 / mixed_ref=1 / me_range=16 / chroma_me=1 / trellis=1 / 8x8dct=1 / cqm=0 / deadzone=21,11 / fast_pskip=1 / chroma_qp_offset=-2 / threads=24 / lookahead_threads=4 / sliced_threads=0 / nr=0 / decimate=1 / interlaced=0 / bluray_compat=0 / constrained_intra=0 / bframes=3 / b_pyramid=2 / b_adapt=1 / b_bias=0 / direct=1 / weightb=1 / open_gop=0 / weightp=2 / keyint=250 / keyint_min=25 / scenecut=40 / intra_refresh=0 / rc_lookahead=40 / rc=abr / mbtree=1 / bitrate=2500 / ratetol=1.0 / qcomp=0.60 / qpmin=0 / qpmax=69 / qpstep=4 / vbv_maxrate=5000 / vbv_bufsize=10000 / nal_hrd=none / filler=0 / ip_ratio=1.40 / aq=1:1.00Default : ДаForced : Да
АудиоИдентификатор : 2Формат : AC-3Формат/Информация : Audio Coding 3Расширение режима : CM (complete main)Параметр Endianness формата : BigИдентификатор кодека : A_AC3Продолжительность : 45 м.Вид битрейта : ПостоянныйБитрейт : 192 Кбит/секКаналы : 2 каналаРасположение каналов : Front: L RЧастота : 48,0 КГцБитовая глубина : 16 битМетод сжатия : С потерямиРазмер потока : 62,4 Мбайт (7%)Язык : RussianDefault : ДаForced : Да
Раздача группы:
Отдельное спасибо nikolspup за предоставление материала.

Внимание ! Раздача ведётся путём добавления новых серий

Внимание! Раздача ведётся путём добавления новых серий; при каждом добавлении создётся новый торрент. Чтобы начать докачку новой серии, пользователям необходимо сделать следующее:
(1) остановить скачивание,
(2) удалить старый торрент у себя из клиента (старые серии удалять не надо),
(3) скачать новый торрент и запустить его у себя в клиенте вместо старого, при этом указать клиенту путь в старую папку куда и должно происходить скачивание новых серий.
Ваш клиент при этом должен произвести хеширование (проверку) старой папки (если не производит сам - помогите ему сделать это), и будет докачивать только те серии которых у вас ещё нет. Старые серии при этом не удаляются, а продолжают раздаваться!
Eсли вы уже удалили старые серии, то предотвратить повторную закачку старых серий можно, отжав галочку в соответсвующих местах при запуске нового торрента. По возможности, желательно не удалять старые серии как можно дольше чтобы релизёр не столько продолжал раздавать старые серии, а смог сконцентрироваться на новых.
ВНИМАНИЕ! ТОРРЕНТ ПЕРЕЗАЛИТ! ДОБАВЛЕНА 11-ая - 12-ая СЕРИИ!

Скриншоты

[Цитировать]



Показать сообщения:    

Текущее время: 26-Май 19:07

Часовой пояс: UTC + 6


Вы не можете начинать темы
Вы не можете отвечать на сообщения
Вы не можете редактировать свои сообщения
Вы не можете удалять свои сообщения
Вы не можете голосовать в опросах
Вы не можете прикреплять файлы к сообщениям
Вы не можете скачивать файлы

!ВНИМАНИЕ!
Сайт не предоставляет электронные версии произведений, а занимается лишь коллекционированием и каталогизацией ссылок, присылаемых и публикуемых на форуме нашими читателями. Если вы являетесь правообладателем какого-либо представленного материала и не желаете, чтобы ссылка на него находилась в нашем каталоге, свяжитесь с нами, и мы незамедлительно удалим ее. Файлы для обмена на трекере предоставлены пользователями сайта, и администрация не несет ответственности за их содержание. Просьба не заливать файлы, защищенные авторскими правами, а также файлы нелегального содержания!