[ Сегодня идет свободное скачивание без начисления Download ]


Статистика раздачи
Нет
 
   
 
Top  
 
 
Бирюк
Год выпуска: 2014
Производство: Триикс Медиа
Жанр: Криминальный фильм
Продолжительность: ~00:45:00
Субтитры: нет
Режиссёр: Игорь Драка
В ролях: Игорь Черневич, Алексей Нилов, Алиса Золоткова, Борис Бедросов, Денис Старков, Артём Алексеев, Виталий Куклин, Вера Тран, Надежда Дмитриева, Олег Дроздов, Роман Жилкин
Описание: Олег Бирюков по кличке "Бирюк" — бывший опер убойного отдела, майор в отставке. Десять лет назад он ушел из милиции, так как при задержании преступника погибла заложница, и Бирюк посчитал себя виновным в ее смерти.
Однажды Олег получил страшную весть от своей первой жены Юли: был убит их сын Максим. С супругой они разошлись больше 20 лет назад, когда мальчику было восемь. Сейчас у Бирюка другая семья, но Максим так и остался его единственным родным ребенком. Он пошел по стопам отца и стал полицейским. В день гибели у Максима был выходной, который он решил провести с женой Катей и сынишкой Мишей. Прогуливаясь по городу, они стали свидетелями разбойного налета на инкассаторов. Безоружный Максим вступил в схватку с бандитами. На глазах Кати главарь банды — Серый — безжалостно добил тяжелораненого Максима, а бандиты с добычей скрылись с места преступления.
Катя обратилась к Бирюку с просьбой найти бандитов. Она не готова ждать, когда их найдет полиция, ведь никакой суд ее не устроит. Катя хочет своими глазами увидеть смерть убийцы мужа. Все для себя решил и Бирюк: он возьмет в руки оружие и отомстит за сына…
Все раздачи сериала:

Качество: DVB
Формат: MPEG
Видео кодек: MPEG 2
Аудио кодек: MPEG 1
Видео: 1024х576 @ 720x576 (4:3) 25.00fps ~5804 Kbps (0.56 bit/pixel)
Аудио: MPEG Audio 48000Hz 2 channels 192 Кбит/сек
Сторонней рекламы нет!

MediaInfo

ОбщееПолное имя                       : F:\Бирюк DVB\Бирюк 01_серия_DVB_by_Wowa63_&_Серый1779.mpgФормат                           : MPEG-PSРазмер файла                     : 1,85 ГбайтПродолжительность                : 43 м.Общий поток                      : 6118 Кбит/сек
ВидеоИдентификатор : 224 (0xE0)Формат : MPEG VideoВерсия формата : Version 2Профиль формата : [email protected] BVOP формата : ДаПараметр матрицы формата : По умолчаниюПродолжительность : 43 м.Вид битрейта : ПеременныйБитрейт : 5804 Кбит/секНоминальный битрейт : 7000 Кбит/секШирина : 720 пикс.Высота : 576 пикс.Соотношение сторон : 16:9Частота кадров : 25,000 кадр/секСтандарт вещания : PALЦветовое пространство : YUVПодвыборка цветности : 4:2:0Битовая глубина : 8 битТип развёртки : ПрогрессивнаяПорядок развёртки : Нижнее поле первоеМетод сжатия : С потерямиБит/(Пиксели*Кадры) : 0.560Размер потока : 1,75 Гбайт (95%)
АудиоИдентификатор : 192 (0xC0)Формат : MPEG AudioВерсия формата : Version 1Профиль формата : Layer 2Продолжительность : 43 м.Вид битрейта : ПостоянныйБитрейт : 192 Кбит/секКаналы : 2 каналаЧастота : 48,0 КГцМетод сжатия : С потерямиРазмер потока : 59,4 Мбайт (3%)
Запись:
Оформление:
Раздача группы:
Отдельная громадная благодарность Media-Art-Club за созданный постер к раздаче.

Внимание ! Раздача ведётся путём добавления новых серий

Внимание! Раздача ведётся путём добавления новых серий; при каждом добавлении создётся новый торрент. Чтобы начать докачку новой серии, пользователям необходимо сделать следующее:
(1) остановить скачивание,
(2) удалить старый торрент у себя из клиента (старые серии удалять не надо),
(3) скачать новый торрент и запустить его у себя в клиенте вместо старого, при этом указать клиенту путь в старую папку куда и должно происходить скачивание новых серий.
Ваш клиент при этом должен произвести хеширование (проверку) старой папки (если не производит сам - помогите ему сделать это), и будет докачивать только те серии которых у вас ещё нет. Старые серии при этом не удаляются, а продолжают раздаваться!
Eсли вы уже удалили старые серии, то предотвратить повторную закачку старых серий можно, отжав галочку в соответсвующих местах при запуске нового торрента. По возможности, желательно не удалять старые серии как можно дольше чтобы релизёр не столько продолжал раздавать старые серии, а смог сконцентрироваться на новых.
ВНИМАНИЕ! ТОРРЕНТ ПЕРЕЗАЛИТ! ДОБАВЛЕНА 2-ая - 4-ая СЕРИИ!

Скриншоты

[Цитировать]



Показать сообщения:    

Текущее время: 04-Дек 23:18

Часовой пояс: UTC + 3


Вы не можете начинать темы
Вы не можете отвечать на сообщения
Вы не можете редактировать свои сообщения
Вы не можете удалять свои сообщения
Вы не можете голосовать в опросах
Вы не можете прикреплять файлы к сообщениям
Вы не можете скачивать файлы

!ВНИМАНИЕ!
Сайт не предоставляет электронные версии произведений, а занимается лишь коллекционированием и каталогизацией ссылок, присылаемых и публикуемых на форуме нашими читателями. Если вы являетесь правообладателем какого-либо представленного материала и не желаете, чтобы ссылка на него находилась в нашем каталоге, свяжитесь с нами, и мы незамедлительно удалим ее. Файлы для обмена на трекере предоставлены пользователями сайта, и администрация не несет ответственности за их содержание. Просьба не заливать файлы, защищенные авторскими правами, а также файлы нелегального содержания!