[ Сегодня идет свободное скачивание без начисления Download ]


Статистика раздачи
Нет
 
   
 
Top  
 
 
Третья мировая- -Год выпуска: 2013
Дистрибьютор: «CD Land»
Производство: "Лазер-Видео Мультимедиа"
Жанр: драма
Продолжительность: 208 мин.
Субтитры: нет-Режиссёр: Александр Котт-В ролях:
Александр Коршунов, Светлана Смирнова-Марцинкевич, Николай Иванов (III), Мария Луговая, Михаил Гаврилов, Людмила Полякова,
Никита Высоцкий, Ирина Основина, Марина Поляк, Анна Галинова, Татьяна Шатилова, Анна Гуляренко, Анна Цуканова, Максим Костромыкин-Описание:
О трагической истории любви на фоне Карибского кризиса. По сюжету фильма, после обострения отношений двух сверхдержав в разных регионах Советского Союза организованы военные сборы для резервистов. В тихой деревушке, расположенной где-то в средней полосе России, ничего не знают о высоких целях политического руководства СССР и США. Но когда мужчины призывного возраста начинают получать повестки из военкомата, сельчане понимают: началась новая война…-Доп. информация:
При помощи DVD Remake Pro для удобства просмотра удалены заставки, предупреждения
Исходник поделен на 2 DVD5 по 2 серии на каждом диске
Навигация диска сохранена, нерабочие кнопки заблокированы
Общее сжатие - 0 %.-

Софт

DVD Remake Pro
--Возраст: 12+-релиз подготовлен RG для -Качество: 2 х DVD5 (Custom)
Формат: DVD-Video

Видео: PAL 4:3 (720x576) VBR
Аудио: Russian (Dolby AC3, 2 ch) 192 Kbps 48.0 KHz
-

MediaInfo

General
Complete name : H:\000\Третья мировая (1-4 серия из 4) 2 х DVD5\DVD 1\VIDEO_TS\VTS_03_1.VOB
Format : MPEG-PS
File size : 1 024 MiB
Duration : 27mn 31s
Overall bit rate mode : Variable
Overall bit rate : 5 202 Kbps
Video
ID : 224 (0xE0)
Format : MPEG Video
Format version : Version 2
Format profile : [email protected]
Format settings, BVOP : Yes
Format settings, Matrix : Default
Format settings, GOP : M=3, N=12
Duration : 27mn 31s
Bit rate mode : Variable
Bit rate : 4 907 Kbps
Maximum bit rate : 8 000 Kbps
Width : 720 pixels
Height : 576 pixels
Display aspect ratio : 4:3
Frame rate : 25.000 fps
Standard : PAL
Color space : YUV
Chroma subsampling : 4:2:0
Bit depth : 8 bits
Scan type : Progressive
Compression mode : Lossy
Bits/(Pixel*Frame) : 0.473
Time code of first frame : 00:00:00:00
Time code source : Group of pictures header
Stream size : 966 MiB (94%)
Audio
ID : 189 (0xBD)-128 (0x80)
Format : AC-3
Format/Info : Audio Coding 3
Mode extension : CM (complete main)
Format settings, Endianness : Big
Muxing mode : DVD-Video
Duration : 27mn 31s
Bit rate mode : Constant
Bit rate : 192 Kbps
Channel(s) : 2 channels
Channel positions : Front: L R
Sampling rate : 48.0 KHz
Bit depth : 16 bits
Compression mode : Lossy
Stream size : 37.8 MiB (4%)
Menu

-

DVDInfo DVD1

Title: DVD 1
Size: 3.83 Gb ( 4 013 712,00 KBytes ) - DVD-5
Enabled regions: 1, 2, 3, 4, 5, 6, 7, 8
VTS_01 :
Play Length: 00:00:00
Video: PAL 4:3 (720x576) VBR
Audio:
Not specified (Dolby AC3, 2 ch)
VTS_02 :
Play Length: 00:52:47
Video: PAL 4:3 (720x576) VBR
Audio:
Russian (Dolby AC3, 2 ch)
VTS_03 :
Play Length: 00:51:34
Video: PAL 4:3 (720x576) VBR
Audio:
Russian (Dolby AC3, 2 ch)
VTS_04 :
Play Length: 00:00:02
Video: PAL 4:3 (720x576) VBR
Audio:
Russian (Dolby AC3, 2 ch)
VTS_05 :
Play Length: 00:00:02
Video: PAL 4:3 (720x576) VBR
Audio:
Russian (Dolby AC3, 2 ch)
* Menus Information *
VIDEO_TS Menu
Video:
NTSC 4:3 (720x480) VBR
Auto Pan&Scan, Auto Letterboxed
English Language Unit :
Title Menu
VTS_01 Menu
Video:
PAL 4:3 (720x576) VBR
Audio:
Not specified (Dolby AC3, 2 ch)
English Language Unit :
Root Menu
VTS_02 Menu
Video:
PAL 4:3 (720x576) VBR
English Language Unit :
Root Menu
VTS_03 Menu
Video:
PAL 4:3 (720x576) VBR
English Language Unit :
Root Menu
VTS_04 Menu
Video:
PAL 4:3 (720x576) VBR
English Language Unit :
Root Menu
VTS_05 Menu
Video:
PAL 4:3 (720x576) VBR
English Language Unit :
Root Menu
Audio #1: AC3, 2/0 (L,R) ch, 192 kbps, Delay 0 mSec

DVDInfo DVD2

Title: DVD 2
Size: 3.55 Gb ( 3 718 174,00 KBytes ) - DVD-5
Enabled regions: 1, 2, 3, 4, 5, 6, 7, 8
VTS_01 :
Play Length: 00:00:00
Video: PAL 4:3 (720x576) VBR
Audio:
Not specified (Dolby AC3, 2 ch)
VTS_02 :
Play Length: 00:00:02
Video: PAL 4:3 (720x576) VBR
Audio:
Russian (Dolby AC3, 2 ch)
VTS_03 :
Play Length: 00:00:02
Video: PAL 4:3 (720x576) VBR
Audio:
Russian (Dolby AC3, 2 ch)
VTS_04 :
Play Length: 00:47:45
Video: PAL 4:3 (720x576) VBR
Audio:
Russian (Dolby AC3, 2 ch)
VTS_05 :
Play Length: 00:48:49
Video: PAL 4:3 (720x576) VBR
Audio:
Russian (Dolby AC3, 2 ch)
* Menus Information *
VIDEO_TS Menu
Video:
NTSC 4:3 (720x480) VBR
Auto Pan&Scan, Auto Letterboxed
English Language Unit :
Title Menu
VTS_01 Menu
Video:
PAL 4:3 (720x576) VBR
Audio:
Not specified (Dolby AC3, 2 ch)
English Language Unit :
Root Menu
VTS_02 Menu
Video:
PAL 4:3 (720x576) VBR
English Language Unit :
Root Menu
VTS_03 Menu
Video:
PAL 4:3 (720x576) VBR
English Language Unit :
Root Menu
VTS_04 Menu
Video:
PAL 4:3 (720x576) VBR
English Language Unit :
Root Menu
VTS_05 Menu
Video:
PAL 4:3 (720x576) VBR
English Language Unit :
Root Menu
Audio #1: AC3, 2/0 (L,R) ch, 192 kbps, Delay 0 mSec

-

Скриншоты меню


-

Скриншоты сериала DVD1



Скриншоты сериала DVD2




-

Ковры


-Раздаю до первых 5-ти скачавших, на раздачи не возвращаюсь...-

[Цитировать]



Показать сообщения:    

Текущее время: 04-Дек 19:23

Часовой пояс: UTC + 3


Вы не можете начинать темы
Вы не можете отвечать на сообщения
Вы не можете редактировать свои сообщения
Вы не можете удалять свои сообщения
Вы не можете голосовать в опросах
Вы не можете прикреплять файлы к сообщениям
Вы не можете скачивать файлы

!ВНИМАНИЕ!
Сайт не предоставляет электронные версии произведений, а занимается лишь коллекционированием и каталогизацией ссылок, присылаемых и публикуемых на форуме нашими читателями. Если вы являетесь правообладателем какого-либо представленного материала и не желаете, чтобы ссылка на него находилась в нашем каталоге, свяжитесь с нами, и мы незамедлительно удалим ее. Файлы для обмена на трекере предоставлены пользователями сайта, и администрация не несет ответственности за их содержание. Просьба не заливать файлы, защищенные авторскими правами, а также файлы нелегального содержания!