[ Сегодня идет свободное скачивание без начисления Download ]


Статистика раздачи
Нет
 
   
 
Top  
 
 
Правила охоты. Отступник
Год выпуска: 2014
Производство: Berg Sound
Жанр: Боевик
Продолжительность: ~00:45:00
Субтитры: нет
Режиссёр: Давид Зограбян
В ролях: Юрий Кормушин, Сергей Апрельский, Лилия Мэй, Петар Зекавица, Леонид Евтифьев, Татьяна Лянник, Евгений Никитин, Виген Степанян, Александр Катин (II)
Описание: Бывший советский ученый-перебежчик решает вернуться на Родину и в обмен на прощение предлагает передать правительству материалы секретной программы "Орбита 12". Ученый также располагает данными, которые позволят выйти на предателя в российских спецслужбах. Однако во время контакта с представителем ученого в Стамбуле погибают сразу три члена спецгруппы генерала Сергачева, а сам он попадает под подозрение. Тем временем, в Россию прибывает агент-убийца из Европы, который методично устраняет всех, кто когда-либо имел отношение к секретной программе. Чтобы доказать свою невиновность, Сергачев формирует спецгруппу и отправляется в Европу на поиски ученого, но операция проваливается, ученого убивают, а сам генерал попадает в руки иностранной разведки.
Все раздачи сериала:

Качество: DVB
Формат: MPEG 2
Видео кодек: MPEG 2
Аудио кодек: MPEG 1
Видео: 768х576 @ 720x576 (4:3) 25.00fps ~2999 Kbps (0.289 bit/pixel)
Аудио: MPEG Audio 48000Hz 2 channels 192 Кбит/сек
Сторонней рекламы нет!

MediaInfo

ОбщееПолное имя                       : F:\Правила охоты. Отступник DVB\Правила охоты. Отступник 01_серия_DVB_by_Wowa63_&_Серый1779.mpgФормат                           : MPEG-PSРазмер файла                     : 1,02 ГбайтПродолжительность                : 44 м.Общий поток                      : 3255 Кбит/сек
ВидеоИдентификатор : 224 (0xE0)Формат : MPEG VideoВерсия формата : Version 2Профиль формата : Main@MainПараметр BVOP формата : ДаПараметр матрицы формата : По умолчаниюПродолжительность : 44 м.Вид битрейта : ПеременныйБитрейт : 2999 Кбит/секНоминальный битрейт : 7000 Кбит/секШирина : 720 пикс.Высота : 576 пикс.Соотношение сторон : 4:3Частота кадров : 25,000 кадр/секСтандарт вещания : PALЦветовое пространство : YUVПодвыборка цветности : 4:2:0Битовая глубина : 8 битТип развёртки : ПрогрессивнаяПорядок развёртки : Нижнее поле первоеМетод сжатия : С потерямиБит/(Пиксели*Кадры) : 0.289Размер потока : 960 Мбайт (92%)
АудиоИдентификатор : 192 (0xC0)Формат : MPEG AudioВерсия формата : Version 1Профиль формата : Layer 2Продолжительность : 44 м.Вид битрейта : ПостоянныйБитрейт : 192 Кбит/секКаналы : 2 каналаЧастота : 48,0 КГцМетод сжатия : С потерямиРазмер потока : 61,5 Мбайт (6%)
Запись:
Оформление:
Раздача группы:
Отдельная громадная благодарность Media-Art-Club за созданный постер к раздаче.

Внимание ! Раздача ведётся путём добавления новых серий

Внимание! Раздача ведётся путём добавления новых серий; при каждом добавлении создётся новый торрент. Чтобы начать докачку новой серии, пользователям необходимо сделать следующее:
(1) остановить скачивание,
(2) удалить старый торрент у себя из клиента (старые серии удалять не надо),
(3) скачать новый торрент и запустить его у себя в клиенте вместо старого, при этом указать клиенту путь в старую папку куда и должно происходить скачивание новых серий.
Ваш клиент при этом должен произвести хеширование (проверку) старой папки (если не производит сам - помогите ему сделать это), и будет докачивать только те серии которых у вас ещё нет. Старые серии при этом не удаляются, а продолжают раздаваться!
Eсли вы уже удалили старые серии, то предотвратить повторную закачку старых серий можно, отжав галочку в соответсвующих местах при запуске нового торрента. По возможности, желательно не удалять старые серии как можно дольше чтобы релизёр не столько продолжал раздавать старые серии, а смог сконцентрироваться на новых.
ВНИМАНИЕ! ТОРРЕНТ ПЕРЕЗАЛИТ! ДОБАВЛЕНА 4-ая СЕРИИ!

Скриншоты

[Цитировать]



Показать сообщения:    

Текущее время: 09-Дек 12:45

Часовой пояс: UTC + 3


Вы не можете начинать темы
Вы не можете отвечать на сообщения
Вы не можете редактировать свои сообщения
Вы не можете удалять свои сообщения
Вы не можете голосовать в опросах
Вы не можете прикреплять файлы к сообщениям
Вы не можете скачивать файлы

!ВНИМАНИЕ!
Сайт не предоставляет электронные версии произведений, а занимается лишь коллекционированием и каталогизацией ссылок, присылаемых и публикуемых на форуме нашими читателями. Если вы являетесь правообладателем какого-либо представленного материала и не желаете, чтобы ссылка на него находилась в нашем каталоге, свяжитесь с нами, и мы незамедлительно удалим ее. Файлы для обмена на трекере предоставлены пользователями сайта, и администрация не несет ответственности за их содержание. Просьба не заливать файлы, защищенные авторскими правами, а также файлы нелегального содержания!