[ Сегодня идет свободное скачивание без начисления Download ]


Статистика раздачи
Нет
 
   
 
Top  
 
 
Смерть шпионам. Крым / Смерть шпионам-2
Год выпуска: 2008
Производство: Россия, Украина
Жанр: детектив, военный
Продолжительность: 00:50:00 серия
Субтитры: нет
Режиссёр: Анна Гресь, Марк Гресь
В ролях: Владимир Гостюхин, Денис Никифоров, Анна Астраханцева, Валерий Афанасьев, Артур Ваха, Леонид Громов, Михаил Гуро, Максим Дрозд,, Александр Олешко, Виктор Перевалов
Описание: Осень 1944 года. Красная Армия уже на пороге Рейха, но это не означает, что Германия смирилась с поражением. Единственной надеждой на победу в войне остается физическое устранение лидеров антигитлеровской коалиции.
В конце октября 1944-го на пограничной железнодорожной станции Кагул случилось чрезвычайное происшествие. В ходе проверки документов, старший лейтенант Кошкин открыл стрельбу по пограничникам. В ходе перестрелки он был смертельно ранен. Умирая, успел сообщить майору СМЕРШа, что он — вражеский диверсант, направлялся в военный санаторий с целью встретиться с немецким резидентом. Больше он ничего не успел сказать…
Предсмертное признание лейтенанта всполошило контрразведку. Генерал Полуноченко принимает решение доложить о ЧП прямо в Москву. Из Москвы срочно прибыл спецуполномоченный. Он сообщил генералу о том, что в начале 45-го года в Ялте состоится встреча Сталина, Черчилля и Рузвельта. Стало ясно, что на полуострове действует диверсионный центр, задача которого сорвать переговоры союзников.
Советская контрразведка решает навязать противнику свою игру. По документам убитого Кошкина в военный санаторий отправляется капитан СМЕРШа. Он предполагает, что опознавательным знаком для немецкого разведчика послужит коралловая бусина, нашитая на кисет диверсанта. Прибывший на место капитан начинает свое расследование.
Все раздачи сериала:
Сэмпл: http://sendfile.su/1065888

Доп.информация: запись с телеканала Перец.
Сравнение с SATRip
http://screenshotcomparison.com/comparison/105706
Качество: DVB
Формат: TS
Видео кодек: H.264
Аудио кодек: MP2
Видео: H.264, 720x576 (16:9), 25 fps, 2197 kbps
Аудио: русский, Mp-2, 48 kHz, 2 ch, 192 kbps

MI

Общее
Идентификатор : 1 (0x1)
Полное имя : D:\Смерть шпионам. Крым\Смерть шпионам. Крым (01 серия).ts
Формат : MPEG-TS
Размер файла : 833 Мбайт
Продолжительность : 46 м.
Режим общего битрейта : Переменный
Общий поток : 2515 Кбит/сек
Видео
Идентификатор : 1521 (0x5F1)
Идентификатор меню : 1 (0x1)
Формат : AVC
Формат/Информация : Advanced Video Codec
Профиль формата : Main@L3.0
Параметр CABAC формата : Да
Параметр ReFrames формата : 3 кадра
Идентификатор кодека : 27
Продолжительность : 46 м.
Битрейт : 2197 Кбит/сек
Ширина : 720 пикселей
Высота : 576 пикселей
Соотношение сторон : 4:3
Частота кадров : 25,000 кадров/сек
Стандарт вещания : Component
Цветовое пространство : YUV
Субдискретизация насыщенности : 4:2:0
Битовая глубина : 8 бит
Тип развёртки : Чересстрочная
Порядок развёртки : Верхнее поле первое
Бит/(Пиксели*Кадры) : 0.212
Размер потока : 728 Мбайт (87%)
Основные цвета : BT.601 PAL
Характеристики трансфера : BT.470 System B, BT.470 System G
Коэффициенты матрицы : BT.601
Аудио
Идентификатор : 1522 (0x5F2)
Идентификатор меню : 1 (0x1)
Формат : MPEG Audio
Версия формата : Version 1
Профиль формата : Layer 2
Идентификатор кодека : 3
Продолжительность : 46 м.
Вид битрейта : Постоянный
Битрейт : 192 Кбит/сек
Каналы : 2 канала
Частота : 48,0 КГц
Метод сжатия : С потерями
Размер потока : 63,6 Мбайт (8%)
Язык : Russian

Скриншот c названием фильма

Скриншоты

[Цитировать]



Показать сообщения:    

Текущее время: 07-Дек 19:22

Часовой пояс: UTC + 3


Вы не можете начинать темы
Вы не можете отвечать на сообщения
Вы не можете редактировать свои сообщения
Вы не можете удалять свои сообщения
Вы не можете голосовать в опросах
Вы не можете прикреплять файлы к сообщениям
Вы не можете скачивать файлы

!ВНИМАНИЕ!
Сайт не предоставляет электронные версии произведений, а занимается лишь коллекционированием и каталогизацией ссылок, присылаемых и публикуемых на форуме нашими читателями. Если вы являетесь правообладателем какого-либо представленного материала и не желаете, чтобы ссылка на него находилась в нашем каталоге, свяжитесь с нами, и мы незамедлительно удалим ее. Файлы для обмена на трекере предоставлены пользователями сайта, и администрация не несет ответственности за их содержание. Просьба не заливать файлы, защищенные авторскими правами, а также файлы нелегального содержания!