[ Сегодня идет свободное скачивание без начисления Download ]


Статистика раздачи
Нет
 
   
 
Top  
 
 
Под каблуком
Год выпуска: 2014
Производство: "Марс Медиа" и "Пантократор"
Жанр: Мелодрама
Продолжительность: ~0:52:00 серия
Субтитры: нет
Режиссёр: Саша Кириенко
В ролях: Илья Любимов, Татьяна Федоровская, Кристина Пакарина, Ольга Волкова, Екатерина Приморская, Екатерина Вуличенко, Наталья Романычева, Софья Хилькова, Олег Мазуров, Олег Алмазов, Игорь Скрипко, Анастасия Шалонько
Описание: Жизнь рекламщика Кости выглядит успешной: работа приносит доход и удовлетворение, любимая женщина согласилась выйти замуж. Но все рушится в один момент: отец Кости умирает, и на его руках оказывается не только семейное дело – фирма-производитель женской обуви, но и беспомощные родственницы, привыкшие к тому, что их проблемы решает мужчина. На роль "главы семейства" явно Костя не подходит: невесте Соне и дочке Марусе он не уделяет достаточно времени, с мамой общается мало, и еще меньше – с дочкой от первого брака. Семейным бизнесом не интересуется и в дела фирмы не вникает. Но трагедия заставляет его повзрослеть: Костя больше не плывет по течению, а находит в себе силы встать у руля компании и быть опорой для всех своих женщин.
Все раздачи сериала:

Качество: HDTVRip
Формат: AVI
Видео кодек: XviD
Аудио кодек: MP3
Видео: 720x400 (1.80:1), 25 fps, XviD MPEG-4 ~1705 kbps avg, 0.237 bit/pixel
Аудио: 48 kHz, MP3, 2/0 (L,R) ch, ~128 kbps
Сторонней рекламы нет!

MediaInfo

ОбщееПолное имя                       : F:\Pod.kablukom.HDTVRip.MediaClub\Pod.kablukom.01.HDTVRip.MediaClub.aviФормат                           : AVIФормат/Информация                : Audio Video InterleaveРазмер файла                     : 706 МбайтПродолжительность                : 49 м.Общий поток                      : 2002 Кбит/секПрограмма кодирования            : VirtualDubMod 1.5.10.3 | www.virtualdub-fr.org || (build 2550/release)Библиотека кодирования           : VirtualDubMod build 2550/release
ВидеоИдентификатор : 0Формат : MPEG-4 VisualПрофиль формата : Advanced [email protected] BVOP формата : 1Параметр QPel формата : НетПараметр GMC формата : Без точки переходаПараметр матрицы формата : ВыборочнаяИдентификатор кодека : XVIDИдентификатор кодека/Подсказка : XviDПродолжительность : 49 м.Битрейт : 1800 Кбит/секШирина : 720 пикс.Высота : 400 пикс.Соотношение сторон : 16:9Частота кадров : 25,000 кадр/секЦветовое пространство : YUVПодвыборка цветности : 4:2:0Битовая глубина : 8 битТип развёртки : ПрогрессивнаяМетод сжатия : С потерямиБит/(Пиксели*Кадры) : 0.250Размер потока : 635 Мбайт (90%)Библиотека кодирования : XviD 73
АудиоИдентификатор : 1Формат : AC-3Формат/Информация : Audio Coding 3Расширение режима : CM (complete main)Идентификатор кодека : 2000Продолжительность : 49 м.Вид битрейта : ПостоянныйБитрейт : 192 Кбит/секКаналы : 2 каналаРасположение каналов : Front: L RЧастота : 48,0 КГцБитовая глубина : 16 битМетод сжатия : С потерямиРазмер потока : 67,7 Мбайт (10%)Выравнивание : Разделение по промежуткамПродолжительность промежутка : 40 мс. (1,00 видеокадр)Время предзагрузки промежутка : 500 ms
Раздача группы:
Отдельное спасибо olegka7373 за предоставление материала.
Релиз:

Внимание ! Раздача ведётся путём добавления новых серий

Внимание! Раздача ведётся путём добавления новых серий; при каждом добавлении создётся новый торрент. Чтобы начать докачку новой серии, пользователям необходимо сделать следующее:
(1) остановить скачивание,
(2) удалить старый торрент у себя из клиента (старые серии удалять не надо),
(3) скачать новый торрент и запустить его у себя в клиенте вместо старого, при этом указать клиенту путь в старую папку куда и должно происходить скачивание новых серий.
Ваш клиент при этом должен произвести хеширование (проверку) старой папки (если не производит сам - помогите ему сделать это), и будет докачивать только те серии которых у вас ещё нет. Старые серии при этом не удаляются, а продолжают раздаваться!
Eсли вы уже удалили старые серии, то предотвратить повторную закачку старых серий можно, отжав галочку в соответсвующих местах при запуске нового торрента. По возможности, желательно не удалять старые серии как можно дольше чтобы релизёр не столько продолжал раздавать старые серии, а смог сконцентрироваться на новых.
ВНИМАНИЕ! ТОРРЕНТ ПЕРЕЗАЛИТ! ДОБАВЛЕНА 7-ая - 8-ая СЕРИИ!

Скриншоты

[Цитировать]



Показать сообщения:    

Текущее время: 04-Дек 17:18

Часовой пояс: UTC + 3


Вы не можете начинать темы
Вы не можете отвечать на сообщения
Вы не можете редактировать свои сообщения
Вы не можете удалять свои сообщения
Вы не можете голосовать в опросах
Вы не можете прикреплять файлы к сообщениям
Вы не можете скачивать файлы

!ВНИМАНИЕ!
Сайт не предоставляет электронные версии произведений, а занимается лишь коллекционированием и каталогизацией ссылок, присылаемых и публикуемых на форуме нашими читателями. Если вы являетесь правообладателем какого-либо представленного материала и не желаете, чтобы ссылка на него находилась в нашем каталоге, свяжитесь с нами, и мы незамедлительно удалим ее. Файлы для обмена на трекере предоставлены пользователями сайта, и администрация не несет ответственности за их содержание. Просьба не заливать файлы, защищенные авторскими правами, а также файлы нелегального содержания!